Ссылка на приватное зеркало нашего сайта всего за 1$. Внимание количество ограничено!!!

2 сезон

iTunes

1 сезон

1

2 сезон

2 сезон

iTunes

1 сезон

RePack

30

Ultimate

ВАЖНО

ИГРА 18+

pack

RePack

MK11
pack

Забери бонус

RePack

jed

!!Акция!!

Alien_Rage

RePack

fifa19

RePack

Assassins Creed: Odyssey

RePack

NEED FOR SPEED™ PAYBACK

4 сезон

9 сезон

Бесстыжие 9 сезон

Все сериалы

все сериалы на PB.wtf

RePack

FAR CRY 5
  

Ибица / Ibiza (Арно Лемор) [2019, комедия, WEB-DL 1080p] DUB [iTunes] pb.wtf

Ибица через торрент pb.wtf

Размер: 3.05 GB | Добавлен: 1 год назад | Торрент скачан:217 раз
Скачать  

14-07-2019 15:33 Ибица Скачать торрент  

Ибица / Ibiza
Год выпуска: 2019
Страна: Франция, Бельгия
Жанр: комедия
Продолжительность: 01:26:03
Перевод: Дублированный | iTunes
Субтитры: отсутствуют

Режиссер: Арно Лемор

rating

В ролях: Кристиан Клавье, Халид Самата, Матильда Сенье, Леопольд Бухсбаум, Пили Груан, Джои Старр, Оливье Маршаль, Фредерик Бель, Луи-До де Ланкесэ, Виктор Уэртас

Описание: Консервативный доктор-ортопед Филипп пытается расположить к себе двух детей-подростков своей новой возлюбленной. Он решает провести вместе с ними семейный отпуск у моря, и молодежь выбирает Ибицу, где любителю тихого отдыха придется непросто.

Качество: WEB-DL 1080p
Формат: MKV

Видео: MPEG-4 AVC, 4688 Кбит/с, 1920x804, 24 fps
Аудио: 48.0 kHz, AC3 Dolby Digital, 3/2 (L,C,R,l,r) + LFE ch, ~384 kbps
скриншот  скриншот  скриншот  скриншот  

General
Уникальный идентификатор : 190468968307488580367855134857287009510 (0x8F4AFD2C16C39E67B4F03467B68184E6)
Полное имя : C:\Кино\Ibiza.2019.WEB.DL.1080p.ELEKTRI4KA.UNIONGANG.mkv
Формат : Matroska
Версия формата : Version 4 / Version 2
Размер файла : 3.05 GiB
Продолжительность : 1 h 26 min
Общий поток : 5 073 kb/s
Дата кодирования : UTC 2019-11-06 10:05:11
Программа кодирования : mkvmerge v8.3.0 ('Over the Horizon') 64bit
Библиотека кодирования : libebml v1.3.1 + libmatroska v1.4.2

Video
Идентификатор : 1
Формат : AVC
Формат/Информация : Advanced Video Codec
Профиль формата : High@L4
Настройки формата : CABAC / 5 Ref Frames
Параметр CABAC формата : Yes
Параметр RefFrames формата : 5 frames
Параметр GOP формата : N=1
Идентификатор кодека : V_MPEG4/ISO/AVC
Продолжительность : 1 h 26 min
Битрейт : 4 688 kb/s
Ширина : 1 920 pixels
Высота : 804 pixels
Соотношение сторон : 2.40:1
Режим частоты кадров : Constant
Частота кадров : 24.000 FPS
Цветовое пространство : YUV
Субдискретизация насыщенности : 4:2:0
Битовая глубина : 8 bits
Тип развёртки : Progressive
Бит/(Пиксели*Кадры) : 0.127
Размер потока : 2.82 GiB (92%)
Заголовок : ELEKTRI4KA.UNIONGANG
Язык : English
Default : Yes
Forced : No
Цветовой диапазон : Limited
Основные цвета : BT.709
Характеристики трансфера : BT.709
Коэффициенты матрицы : BT.709

Audio
Идентификатор : 2
Формат : AC-3
Формат/Информация : Audio Coding 3
Идентификатор кодека : A_AC3
Продолжительность : 1 h 26 min
Вид битрейта : Constant
Битрейт : 384 kb/s
Каналы : 6 channels
Расположение каналов : Front: L C R, Side: L R, LFE
Частота : 48.0 kHz
Частота кадров : 31.250 FPS (1536 SPF)
Битовая глубина : 16 bits
Метод сжатия : Lossy
Размер потока : 236 MiB (8%)
Заголовок : iTunes
Язык : Russian
ServiceKind/String : Complete Main
Default : Yes
Forced : No

Menu
00:00:00.000 : en:Глава 1
00:07:25.583 : en:Глава 2
00:15:43.499 : en:Глава 3
00:23:25.414 : en:Глава 4
00:30:25.454 : en:Глава 5
00:37:36.579 : en:Глава 6
00:44:49.537 : en:Глава 7
00:51:29.745 : en:Глава 8
00:58:36.370 : en:Глава 9
01:04:48.870 : en:Глава 10
01:12:46.786 : en:Глава 11
01:17:40.661 : en:Глава 12

pb.wtf



Скачать Ибица через торрент https://i3.imageban.ru/out/2019/11/06/0d341d240865b2cfdabd6b40737a48a5.png Скачать фильм Ибица через торрент бесплантно в хорошем качестве Описание: Консервативный доктор-ортопед Филипп пытается расположить к себе двух детей-подростков своей новой возлюбленной. Он решает ... 10 10 7
Торрент: Зарегистрирован [2019-11-06 19:18] · скачан: 217 раз
Статус: √ проверено
Размер: 3.05 GB
Как cкачать? Как скачать Ибица через торрент | qTorrent

% Раздел Тема Автор DL S | L
Фильмы [HD 720p, 1080p] (Хороший звук DUB, MVO) [ 7.68 GB ] Ибица / Ibiza [2019 BDRip 1080p] bober100 Скачать
1 | 0
Фильмы 2019-2020 [DVDrip, WEB-DLRip, HDrip] (DUB, MVO) [ 1.42 GB ] Ибица / Ibiza [2019 BDRip] - Twi7ter Скачать
15 | 1
Фильмы (Blu-ray, BD-Remux, HDDVD) [ 21.02 GB ] Ибица / Ibiza [2019 BD Remux 1080p] bober100 Скачать
1 | 0
Фильмы 2019-2020 [DVDrip, WEB-DLRip, HDrip] (DUB, MVO) [ 1.42 GB ] Ибица / Ibiza [2019 BDRip] bober100 Скачать
2 | 0
Фильмы (WEB-DL 720p, 1080p) [ 2.66 GB ] Ибица / Ibiza [2019 WEB-DL 720p] bober100 Скачать
2 | 0
Порно фильмы HD [ 8.03 GB ] Анальные Омара на Ибице / Private Specials 79: Omar's Anal Adventures In Ibiza [2013 All Sex Anal. WEB-DL 1080p Оригинал] nn99nn Скачать
1 | 0
Порно фильмы с сюжетом [ 749 MB ] Поездка на Ибицу 1 / Cumming to Ibiza 1 [1995 Feature Foreign Straight Oral All Sex VHSRip 368p] sheker187 Скачать
2 | 0

28-11-2019 20:33  

Отключить всю рекламу на сайте

    Дорогой пользователь! Огромная просьба, поблагодарите релизера, оцените раздачу и оставьте свои комментарий, если Вы скачали Ибица через торрент бесплатно! Внесите свою лепту в развитие PiratBit!
    Комментировать посты могут только пользователи прошедшие не сложную регистрацию
    Показать сообщения:    

    Ибица через торрент
    Скачать бесплатно Ибица
    Ибица скачать торрент
    Ибица смотреть онлайн
    Cкачать фильм Ибица бесплатно
    Ибица скачать торрент в хорошем качестве
    Ибица смотреть онлайн бесплатно в хорошем качестве


    Вы не можете начинать темы
    Вы не можете отвечать на сообщения
    Вы не можете редактировать свои сообщения
    Вы не можете удалять свои сообщения
    Вы не можете голосовать в опросах
    Вы не можете прикреплять файлы к сообщениям
    Вы можете скачивать файлы