новый адрес
Мега распродажа FORZA HORIZON 4 ULTIMATE+ВСЕ DLC+ОНЛАЙН всего за 499р. 349 руб. (супер цена). Внимание количество ограничено!!!

iTunes

1+1

iTunes

мы

iTunes

1

iTunes

Чернобыль

iTunes

Ральф против интернета

Лицензия

ПШазам

Лицензия

Игра престолов

Лицензия

30
pack

ВАЖНО

!!Акция!!

Alien_RageХит недели

RePack

Resident Evil 21

ИГРА 18+

pack

RePack

Metro:Exodus

!!Акция!!

Alien_Rage

RePack

fifa19

RePack

Assassins Creed: Odyssey

RePack

NEED FOR SPEED™ PAYBACK

3 сезон

9 сезон

Бесстыжие 9 сезон

Все сериалы

все сериалы на PB.wtf

RePack

FAR CRY 5
Ребята, катастрофически не хватает 1900р. для оплаты серверов за Октябрь (всвязи с блокировками трафик упал в 3 раза), 1-2р., выручайте.
  

Спасти Ленинград (Алексей Козлов) [2019, драма, военный, BDRip-AVC] pb.wtf

Спасти Ленинград через торрент pb.wtf

Раздают: 22 [ 0 KB/s ] Качают: 1 [ 0 KB/s ]
Размер: 746 MB | Добавлен: 4 мес. 4 д. назад | Торрент скачан:76 раз
Скачать  

14-07-2019 16:33 Спасти Ленинград Скачать торрент  

Спасти Ленинград

Страна: Россия
Жанр: драма, военный
Год выпуска: 2019
Продолжительность: 01:37:14

Перевод: Не требуется
Субтитры: русские (форсированные, SDH)
Оригинальная аудиодорожка: русский

Режиссер: Алексей Козлов

В ролях: Мария Мельникова, Андрей Миронов-Удалов, Гела Месхи, Анастасия Мельникова, Валерий Дегтярь, Марина Комарова, Виталий Кищенко, Алексей Шевченков, Борис Щербаков, Инга Оболдина

Описание: Сентябрь 1941 года. Юные влюбленные Костя и Настя волею обстоятельств оказываются на барже, которая должна вывезти людей из блокадного Ленинграда. Ночью судно попадает в шторм и терпит бедствие, на месте трагедии первыми оказываются вовсе не спасатели, а вражеские самолеты.



Релиз:

Автор рипа: stalkerok

Сэмпл

Качество видео: BDRip-AVC | Исходник: Flucht.aus.Leningrad.2019.DUAL.COMPLETE.BLURAY-UNiVERSUM
Формат видео: MKV
Видео кодек: AVC
Аудио кодек: AAC
Видео: AVC, 1007 Кбит/сек, 856x358 (2.40:1), 24 кадр/сек
Аудио: AAC, 64 Кбит/сек, 48 КГц, 2.0 - русский | Blu-Ray GER
Навигация по главам: есть
---[Information] [04.07.2019 21:56:07] x264 [info]: frame I:784 Avg QP:18.99 size: 27959
---[Information] [04.07.2019 21:56:07] x264 [info]: frame P:36234 Avg QP:23.03 size: 10165
---[Information] [04.07.2019 21:56:07] x264 [info]: frame B:103015 Avg QP:24.45 size: 3336

General
Unique ID : 256121107673835942206453637367725843522 (0xC0AF218D885B925C85C62B46FE5C6442)
Complete name : M:\temp\!Rips\Spasti Leningrad\Spasti.Leningrad.2019.BDRip.x264.Rus.stalkerok.New-Team..mkv
Format : Matroska
Format version : Version 4
File size : 746 MiB
Duration : 1 h 37 min
Overall bit rate : 1 072 kb/s
Movie name : Спасти Ленинград (2019) | Rip by stalkerok
Encoded date : UTC 2019-07-14 16:18:02
Writing application : mkvmerge v33.1.0 ('Primrose') 64-bit
Writing library : libebml v1.3.7 + libmatroska v1.5.0

Video
ID : 1
Format : AVC
Format/Info : Advanced Video Codec
Format profile : High@L4.1
Format settings : CABAC / 12 Ref Frames
Format settings, CABAC : Yes
Format settings, RefFrames : 12 frames
Codec ID : V_MPEG4/ISO/AVC
Duration : 1 h 37 min
Bit rate : 1 007 kb/s
Width : 856 pixels
Height : 358 pixels
Display aspect ratio : 2.40:1
Frame rate mode : Constant
Frame rate : 24.000 FPS
Color space : YUV
Chroma subsampling : 4:2:0
Bit depth : 8 bits
Scan type : Progressive
Bits/(Pixel*Frame) : 0.137
Stream size : 700 MiB (94%)
Title : Спасти Ленинград (2019) | Rip by stalkerok
Writing library : x264 core 157 r2945 72db437
Encoding settings : cabac=1 / ref=12 / deblock=1:-2:-1 / analyse=0x3:0x133 / me=umh / subme=10 / psy=1 / psy_rd=1.00:0.00 / mixed_ref=1 / me_range=32 / chroma_me=1 / trellis=2 / 8x8dct=1 / cqm=0 / deadzone=21,11 / fast_pskip=0 / chroma_qp_offset=-2 / threads=11 / lookahead_threads=2 / sliced_threads=0 / nr=0 / decimate=0 / interlaced=0 / bluray_compat=0 / constrained_intra=0 / bframes=16 / b_pyramid=2 / b_adapt=2 / b_bias=0 / direct=3 / weightb=1 / open_gop=0 / weightp=2 / keyint=240 / keyint_min=23 / scenecut=40 / intra_refresh=0 / rc_lookahead=60 / rc=2pass / mbtree=0 / bitrate=1007 / ratetol=1.0 / qcomp=0.65 / qpmin=0 / qpmax=69 / qpstep=4 / cplxblur=20.0 / qblur=0.5 / vbv_maxrate=50000 / vbv_bufsize=62500 / nal_hrd=none / filler=0 / ip_ratio=1.40 / pb_ratio=1.30 / aq=3:1.00 / zones=130578,140032,q=36
Default : Yes
Forced : No

Audio
ID : 2
Format : AAC LC SBR
Format/Info : Advanced Audio Codec Low Complexity with Spectral Band Replication
Commercial name : HE-AAC
Format settings : Explicit
Codec ID : A_AAC-2
Duration : 1 h 37 min
Bit rate : 64.0 kb/s
Channel(s) : 2 channels
Channel layout : L R
Sampling rate : 48.0 kHz
Frame rate : 23.438 FPS (2048 SPF)
Compression mode : Lossy
Delay relative to video : 31 ms
Stream size : 44.5 MiB (6%)
Language : Russian
Default : Yes
Forced : No

Text #1
ID : 3
Format : UTF-8
Codec ID : S_TEXT/UTF8
Codec ID/Info : UTF-8 Plain Text
Duration : 9 s 661 ms
Bit rate : 245 b/s
Count of elements : 2
Stream size : 296 Bytes (0%)
Title : forced
Language : Russian
Default : Yes
Forced : No

Text #2
ID : 4
Format : UTF-8
Codec ID : S_TEXT/UTF8
Codec ID/Info : UTF-8 Plain Text
Duration : 1 h 29 min
Bit rate : 81 b/s
Count of elements : 1072
Stream size : 53.4 KiB (0%)
Title : SDH
Language : Russian
Default : No
Forced : No

Menu
00:00:00.000 : :Chapter 01
00:03:01.750 : :Chapter 02
00:09:04.625 : :Chapter 03
00:15:37.333 : :Chapter 04
00:22:33.750 : :Chapter 05
00:30:36.625 : :Chapter 06
00:34:29.833 : :Chapter 07
00:38:24.541 : :Chapter 08
00:43:42.250 : :Chapter 09
00:48:45.916 : :Chapter 10
00:53:19.875 : :Chapter 11
00:58:40.916 : :Chapter 12
01:07:26.041 : :Chapter 13
01:13:26.750 : :Chapter 14
01:18:02.541 : :Chapter 15
01:22:38.416 : :Chapter 16
01:26:42.583 : :Chapter 17
01:30:54.708 : :Chapter 18
pb.wtf



Скачать Спасти Ленинград через торрент http://i6.imageban.ru/out/2017/09/18/2ff75c0c358795c5946784cc1680714d.png Скачать фильм Спасти Ленинград через торрент бесплантно в хорошем качестве Описание: Сентябрь 1941 года. Юные влюбленные Костя и Настя волею обстоятельств оказываются на барже, которая должна вывезти людей из ... 8.2 10 5
Info! Золотая раздача, скачанное не засчитывается.
Торрент: Зарегистрирован [2019-07-14 16:33] · скачан: 76 раз
Статус: √ проверено
Размер: 746 MB
Как cкачать? Как скачать Спасти Ленинград через торрент | qTorrent

% Раздел Тема Автор DL S | L
Наши новые фильмы 2018-2019 [ 1.46 GB ] Спасти Ленинград [2019 военный BDRip] [Русский] [] Twi7ter Скачать
47 | 3
Наши фильмы (HD, WEB-DL 720p, 1080p) [ 4.19 GB ] Спасти Ленинград [2019 военный BDRip 720p] [] - ExKinoRay Enigma2010 Скачать
19 | 1
Наши новые фильмы 2018-2019 [ 1.48 GB ] Спасти Ленинград [2019 военный BDRip-AVC] sokol_ok Скачать
10 | 0
Наши фильмы (HD, WEB-DL 720p, 1080p) [ 7.9 GB ] Спасти Ленинград [2019 военный BDRip 1080p] [] sheker187 Скачать
1 | 0
Наши фильмы (Blu-ray, BD-Remux, HDDVD) [ 29.11 GB ] Спасти Ленинград [2019 военный BDRemux 1080p] [] sheker187 Скачать
1 | 0
Наши фильмы (HD, WEB-DL 720p, 1080p) [ 2.88 GB ] Спасти Ленинград [2019 военный WEB-DLRip 720p] - ExKinoRay Enigma2010 Скачать
29 | 0
Наши фильмы (HD, WEB-DL 720p, 1080p) [ 3.3 GB ] Спасти Ленинград [2019 военный WEB-DL 1080p] killermax2013 Скачать
3 | 0


>> Регистрируемся здесь <<






Отзывы и комментарии о схеме читаем и пишем здесь: ---> Отзывы и комментарии о схеме

Новые благодарочки в телеграм довольных пользователей:
скриншот   скриншот   скриншот   скриншот   скриншот

14-07-2019 17:29 Спасти Ленинград Скачать торрент  

Ну и как? Рейтинг вроде смотрибельный. А на самом деле?pb.wtf



    Дорогой пользователь! Огромная просьба, поблагодарите релизера, оцените раздачу и оставьте свои комментарий, если Вы скачали Спасти Ленинград через торрент бесплатно! Внесите свою лепту в развитие PiratBit!
    Комментировать посты могут только пользователи прошедшие не сложную регистрацию
    Показать сообщения:    

    Спасти Ленинград через торрент
    Скачать бесплатно Спасти Ленинград
    Спасти Ленинград скачать торрент
    Спасти Ленинград смотреть онлайн
    Cкачать фильм Спасти Ленинград бесплатно
    Спасти Ленинград скачать торрент в хорошем качестве
    Спасти Ленинград смотреть онлайн бесплатно в хорошем качестве


    Вы не можете начинать темы
    Вы не можете отвечать на сообщения
    Вы не можете редактировать свои сообщения
    Вы не можете удалять свои сообщения
    Вы не можете голосовать в опросах
    Вы не можете прикреплять файлы к сообщениям
    Вы можете скачивать файлы