новый адрес пиратбит piratbit
MEGA NEWS Получи личный уникальный адрес сайта и защити себя от блокировок. Внимание количество ограничено!!!

iTunes

1+1

iTunes

мы

iTunes

1

iTunes

Чернобыль

iTunes

Ральф против интернета

Лицензия

ПШазам

Лицензия

Игра престолов

Лицензия

30
pack

ВАЖНО

!!Акция!!

Alien_RageХит недели

RePack

Resident Evil 21

ИГРА 18+

pack

RePack

Metro:Exodus

!!Акция!!

Alien_Rage

RePack

fifa19

RePack

Assassins Creed: Odyssey

RePack

NEED FOR SPEED™ PAYBACK

3 сезон

9 сезон

Бесстыжие 9 сезон

Все сериалы

все сериалы на PB.wtf

RePack

FAR CRY 5
Ребята, катастрофически не хватает 1900р. для оплаты серверов за АВГУСТ (всвязи с блокировками трафик упал в 3 раза), 1-2р., выручайте.
  

Желтый роллс-ройс / The Yellow Rolls-Royce (Энтони Эсквит) [1964 г., драма, мелодрама, комедия, WEB-DLRip 720p] MVO + VO - KORSAR pb.wtf

Желтый роллс-ройс через торрент pb.wtf

Размер: 4.78 GB | Добавлен: 3 мес. 8 д. назад | Торрент скачан:1 раз
Скачать  

14-07-2019 19:48 Желтый роллс-ройс Скачать торрент  

Желтый роллс-ройс / The Yellow Rolls-Royce
Год выпуска: 1964
Страна: Великобритания
Жанр: Драма, мелодрама, комедия
Продолжительность: 02:02:37
Перевод: Профессиональный многоголосый, любительский одноголосый
Субтитры: Английские
Режиссёр: Энтони Эсквит
В ролях: Ингрид Бергман, Рекс Харрисон, Ширли МакЛейн, Жанна Моро, Джордж К. Скотт, Омар Шариф, Ален Делон, Арт Карни, Джойс Гренфелл, Эдмунд Пурдом, Майкл Хордерн, Лэнс Персивал, Роланд Калвер, Мойра Листер, Харольд Скотт, Ричард Пирсон, Иза Миранда, Грегуар Аслан, Риккардо Гарроне, Уолли Кокс, Карло Крокколо, Мартин Миллер
Описание: Три новеллы о любви и разлуке. Объединяет их «Роллс-ройс»- именно он служит пристанищем для влюбленных. Увы, их первое свидание в силу разных обстоятельств обычно оказывается и последним, после чего владелец машины предпочитает избавиться от нее, но, похоже, этот «Роллс-ройс» заколдован — с каждым следующим покупателем происходит то же самое.

rating

Качество: WEB-DLRip 720p
Формат: MKV
Видео: MPEG-4 AVC, 4966 Кбит/сек, 1280x532, 23.976 кадра/сек
Аудио 1: AC3, 2 ch, 192 Кбит/сек | Русский, профессиональный (многоголосый закадровый) ТНТ
Аудио 2: AC3, 2 ch, 192 Кбит/сек | Русский, одноголосый закадровый
Аудио 3: E-AC-3, 2 ch, 224 Кбит/сек | Английский, оригинал

Релиз от:


Общее
Уникальный идентификатор : 219465695438277756600062493742166961468 (0xA51B8E32B1C2CE62A4F7E341DE6BED3C)
Полное имя : The.Yellow.Rolls-Royce.1964.WEB-DLRip.720p.KORSAR.mkv
Формат : Matroska
Версия формата : Version 2
Размер файла : 4,78 Гбайт
Продолжительность : 2 ч. 2 м.
Общий поток : 5576 Кбит/сек
Название фильма : The.Yellow.Rolls-Royce.1964.WEB-DLRip.720p.KORSAR
Дата кодирования : UTC 2018-10-03 19:58:16
Программа кодирования : mkvmerge v5.8.0 ('No Sleep / Pillow') built on Sep 2 2012 15:37:04
Библиотека кодирования : libebml v1.2.3 + libmatroska v1.3.0

Видео
Идентификатор : 1
Формат : AVC
Формат/Информация : Advanced Video Codec
Профиль формата : High@L4.1
Параметр CABAC формата : Да
Параметр RefFrames формата : 12 кадров
Идентификатор кодека : V_MPEG4/ISO/AVC
Продолжительность : 2 ч. 2 м.
Битрейт : 4966 Кбит/сек
Ширина : 1280 пикселей
Высота : 532 пикселя
Соотношение сторон : 2,40:1
Режим частоты кадров : Постоянный
Частота кадров : 23,976 (24000/1001) кадра/сек
Цветовое пространство : YUV
Субдискретизация насыщенности : 4:2:0
Битовая глубина : 8 бит
Тип развёртки : Прогрессивная
Бит/(Пиксели*Кадры) : 0.304
Размер потока : 4,16 Гбайт (87%)
Заголовок : The.Yellow.Rolls-Royce.1964.WEB-DLRip.720p.KORSAR
Библиотека кодирования : x264 core 148 r2744kMod b97ae06
Настройки программы : cabac=1 / ref=12 / deblock=1:-3:-3 / analyse=0x3:0x113 / me=umh / subme=11 / psy=1 / fade_compensate=0.00 / psy_rd=1.00:0.00 / mixed_ref=1 / me_range=32 / chroma_me=1 / trellis=2 / 8x8dct=1 / cqm=0 / deadzone=21,11 / fast_pskip=0 / chroma_qp_offset=-2 / threads=6 / lookahead_threads=1 / sliced_threads=0 / nr=0 / decimate=0 / interlaced=0 / bluray_compat=0 / constrained_intra=0 / bframes=16 / b_pyramid=2 / b_adapt=2 / b_bias=0 / direct=3 / weightb=1 / open_gop=0 / weightp=2 / keyint=250 / keyint_min=23 / scenecut=40 / intra_refresh=0 / rc_lookahead=60 / rc=2pass / mbtree=1 / bitrate=4966 / ratetol=1.0 / qcomp=0.60 / qpmin=0 / qpmax=69 / qpstep=4 / cplxblur=20.0 / qblur=0.5 / vbv_maxrate=50000 / vbv_bufsize=62500 / nal_hrd=none / filler=0 / ip_ratio=1.40 / aq=3:0.90
Язык : English
Default : Да
Forced : Нет
Цветовой диапазон : Limited
Основные цвета : BT.709
Характеристики трансфера : BT.709
Коэффициенты матрицы : BT.709

Аудио #1
Идентификатор : 2
Формат : AC-3
Формат/Информация : Audio Coding 3
Параметр Endianness формата : Big
Идентификатор кодека : A_AC3
Продолжительность : 2 ч. 2 м.
Вид битрейта : Постоянный
Битрейт : 192 Кбит/сек
Каналы : 2 канала
Расположение каналов : Front: L R
Частота : 48,0 КГц
Частота кадров : 31,250 кадров/сек (1536 SPF)
Битовая глубина : 16 бит
Метод сжатия : С потерями
Размер потока : 168 Мбайт (3%)
Заголовок : MVO | ТНТ
Язык : Russian
Default : Да
Forced : Нет

Аудио #2
Идентификатор : 3
Формат : AC-3
Формат/Информация : Audio Coding 3
Параметр Endianness формата : Big
Идентификатор кодека : A_AC3
Продолжительность : 2 ч. 2 м.
Вид битрейта : Постоянный
Битрейт : 192 Кбит/сек
Каналы : 2 канала
Расположение каналов : Front: L R
Частота : 48,0 КГц
Частота кадров : 31,250 кадров/сек (1536 SPF)
Битовая глубина : 16 бит
Метод сжатия : С потерями
Размер потока : 168 Мбайт (3%)
Заголовок : VO
Язык : Russian
Default : Нет
Forced : Нет

Аудио #3
Идентификатор : 4
Формат : E-AC-3
Формат/Информация : Enhanced Audio Coding 3
Параметр Endianness формата : Big
Идентификатор кодека : A_EAC3
Продолжительность : 2 ч. 2 м.
Вид битрейта : Постоянный
Битрейт : 224 Кбит/сек
Каналы : 2 канала
Расположение каналов : Front: L R
Частота : 48,0 КГц
Частота кадров : 187,500 кадров/сек (256 SPF)
Метод сжатия : С потерями
Задержка видео : 64 мс.
Размер потока : 196 Мбайт (4%)
Заголовок : Original
Язык : English
Default : Нет
Forced : Нет

Текст #1
Идентификатор : 5
Формат : UTF-8
Идентификатор кодека : S_TEXT/UTF8
Идентификатор кодека/Информация : UTF-8 Plain Text
Язык : English
Default : Нет
Forced : Нет

Текст #2
Идентификатор : 6
Формат : UTF-8
Идентификатор кодека : S_TEXT/UTF8
Идентификатор кодека/Информация : UTF-8 Plain Text
Заголовок : SDH
Язык : English
Default : Нет
Forced : Нет

Меню
00:00:00.000 : en:01. Credits
00:02:03.195 : en:02. His Lordship's Purchase
00:05:43.862 : en:03. Weighty Affairs of State
00:09:42.796 : en:04. No Trouble at All
00:13:07.763 : en:05. Gift to an Ideal Wife
00:18:19.196 : en:06. Let Them Wonder
00:20:24.629 : en:07. Gold Cup Day
00:23:37.929 : en:08. Backseat View
00:28:36.229 : en:09. Unanswerable
00:34:15.562 : en:10. Car with Class
00:40:33.995 : en:11. Having Pisa
00:44:02.261 : en:12. Passenger for Florence
00:48:04.095 : en:13. Amoral Amore
00:53:33.528 : en:14. Bon Voyage, Boss
00:57:35.794 : en:15. Sirignano
01:00:56.960 : en:16. Forget Domani and Swim
01:04:30.194 : en:17. Caving to Attraction
01:11:35.527 : en:18. For Stefano's Sake
01:15:31.660 : en:19. Mae's Choice
01:18:41.327 : en:20. Of Service
01:23:13.760 : en:21. No Stopping Mrs. Millett
01:27:41.860 : en:22. Davich Hitches a Ride
01:31:06.694 : en:23. Dangerous Cargo
01:35:12.027 : en:24. Border Bravado
01:38:56.227 : en:25. What About My Martini?
01:43:42.660 : en:26. Emergency Aid Vehicle
01:48:39.793 : en:27. No Sentimental Gush
01:54:57.727 : en:28. Fully Loaded
01:58:10.394 : en:29. Bruised Hearts
02:01:42.827 : en:30. Cast List
pb.wtf



Скачать Желтый роллс-ройс через торрент https://i6.imageban.ru/out/2019/07/14/45c492d7b1e68d2d9273d2ed4fca41cd.png Скачать фильм Желтый роллс-ройс через торрент бесплантно в хорошем качестве Описание: Три новеллы о любви и разлуке. Объединяет их «Роллс-ройс»- именно он служит пристанищем для влюбленных. Увы, их первое свидание в ... 5 10 1
Info! Золотая раздача, скачанное не засчитывается.
Торрент: Зарегистрирован [2019-07-14 19:48] · скачан: 1 раз
Статус: √ проверено
Размер: 4.78 GB
Как cкачать? Как скачать Желтый роллс-ройс через торрент | qTorrent


>> Регистрируемся здесь <<






Отзывы и комментарии о схеме читаем и пишем здесь: ---> Отзывы и комментарии о схеме

Новые благодарочки в телеграм довольных пользователей:
скриншот   скриншот   скриншот   скриншот   скриншот
    Дорогой пользователь! Огромная просьба, поблагодарите релизера, оцените раздачу и оставьте свои комментарий, если Вы скачали Желтый роллс-ройс через торрент бесплатно! Внесите свою лепту в развитие PiratBit!
    Комментировать посты могут только пользователи прошедшие не сложную регистрацию
    Показать сообщения:    

    Желтый роллс-ройс через торрент
    Скачать бесплатно Желтый роллс-ройс
    Желтый роллс-ройс скачать торрент
    Желтый роллс-ройс смотреть онлайн
    Cкачать фильм Желтый роллс-ройс бесплатно
    Желтый роллс-ройс скачать торрент в хорошем качестве
    Желтый роллс-ройс смотреть онлайн бесплатно в хорошем качестве


    Вы не можете начинать темы
    Вы не можете отвечать на сообщения
    Вы не можете редактировать свои сообщения
    Вы не можете удалять свои сообщения
    Вы не можете голосовать в опросах
    Вы не можете прикреплять файлы к сообщениям
    Вы можете скачивать файлы