Ссылка на приватное зеркало нашего сайта всего за 1$. Внимание количество ограничено!!!

2 сезон

iTunes

1 сезон

1

2 сезон

2 сезон

iTunes

1 сезон

RePack

30

Ultimate

ВАЖНО

ИГРА 18+

pack

RePack

MK11
pack

Забери бонус

RePack

jed

!!Акция!!

Alien_Rage

RePack

fifa19

RePack

Assassins Creed: Odyssey

RePack

NEED FOR SPEED™ PAYBACK

4 сезон

9 сезон

Бесстыжие 9 сезон

Все сериалы

все сериалы на PB.wtf

RePack

FAR CRY 5
  

Общество / The Society / Сезон: 1 / Серии: 1-10 из 10 (Марк Уэбб, Хайфа Аль-Мансур, Патрисия Кардосо) [2019, драма, фантастика, WEB-DL 1080p] MVO [TVShows] pb.wtf

Общество через торрент pb.wtf

Размер: 21.21 GB | Добавлен: 1 год 4 мес. назад | Торрент скачан:8 раз
Скачать  

15-07-2019 00:26 Общество Скачать торрент  

Общество / The Society Страна: США
Год выпуска: 2019
Производство: NetFlix
Жанр: драма, фантастика
Продолжительность: ~00:58:00 серия
Перевод: Профессиональный (многоголосый закадровый) | TVShows
Субтитры: английские

Режиссёр: Марк Уэбб, Хайфа Аль-Мансур, Патрисия Кардосо

В ролях: Гидеон Адлон, Шон Берди, Оливия ДеДжонг, Кристин Фросет, Рэйчел Келлер, Алекс Фитцалан, Наташа Лю Бордиццо, Джордан Брэдбери, Жак Колимон, Грэйс Виктория Кокс, Доменик Ардуино, Майкл Кассата

Описание: Сюжет сериала разворачивается в вымышленном городке Нью-Хэм, в Новой Англии. Странным образом ребята попадают в точную копию своего города, но только без взрослых. Поначалу герои находят полную свободу забавной, но затем ситуация выходи из-под контроля. Богатенькие девочки и мальчики оставшись без родительского надзора, изо всех сил пытаются понять, что с ними произошло, и как им вернуться домой. Но для этого они должны установить порядок и соблюдать определенные нормы гражданского общества. Только так они смогут выжить. Теперь они ответственны сами за себя, и если они не придут к согласию, то все закончится очень плохо.

rating


Качество: WEB-DL 1080p
Формат: MKV

Видео: MPEG4 AVC Video, H264, 16:9, 1920x1080, 23.976 fps, ~4870 kbps
Аудио: Russian (AC3, 6 ch, 384 kbps)
Аудио 2: English (E-AC3, 6 ch, 768 kbps)
General
Unique ID : 203512222254785734455958954676816748340 (0x991B073DF17593288F0902C1D5D89F34)
Complete name : F:\The.Society.S01.1080p.TVShows\The.Society.S01E01.1080p.TVShows.mkv
Format : Matroska
Format version : Version 4 / Version 2
File size : 2.41 GiB
Duration : 58 min 27 s
Overall bit rate mode : Variable
Overall bit rate : 5 890 kb/s
Encoded date : UTC 2019-06-14 14:20:51
Writing application : mkvmerge v33.1.0 ('Primrose') 64-bit
Writing library : libebml v1.3.7 + libmatroska v1.5.0

Video
ID : 1
Format : AVC
Format/Info : Advanced Video Codec
Format profile : Main@L4
Format settings : CABAC / 3 Ref Frames
Format settings, CABAC : Yes
Format settings, ReFrames : 3 frames
Codec ID : V_MPEG4/ISO/AVC
Duration : 58 min 27 s
Bit rate mode : Variable
Bit rate : 4 870 kb/s
Maximum bit rate : 7 305 kb/s
Width : 1 920 pixels
Height : 1 080 pixels
Display aspect ratio : 16:9
Frame rate mode : Constant
Frame rate : 23.976 (24000/1001) FPS
Color space : YUV
Chroma subsampling : 4:2:0
Bit depth : 8 bits
Scan type : Progressive
Bits/(Pixel*Frame) : 0.098
Stream size : 1.93 GiB (80%)
Writing library : x264 core 148 r2715 7e75228
Encoding settings : cabac=1 / ref=3 / deblock=1:0:0 / analyse=0x1:0x111 / me=umh / subme=10 / psy=1 / psy_rd=1.00:0.00 / mixed_ref=1 / me_range=24 / chroma_me=1 / trellis=2 / 8x8dct=0 / cqm=0 / deadzone=21,11 / fast_pskip=1 / chroma_qp_offset=-2 / threads=8 / lookahead_threads=1 / sliced_threads=0 / nr=0 / decimate=1 / interlaced=0 / bluray_compat=0 / stitchable=1 / constrained_intra=0 / bframes=2 / b_pyramid=0 / b_adapt=2 / b_bias=0 / direct=3 / weightb=1 / open_gop=0 / weightp=2 / keyint=48 / keyint_min=25 / scenecut=0 / intra_refresh=0 / rc_lookahead=48 / rc=2pass / mbtree=1 / bitrate=4870 / ratetol=1.0 / qcomp=0.50 / qpmin=6 / qpmax=51 / qpstep=4 / cplxblur=20.0 / qblur=0.5 / vbv_maxrate=7305 / vbv_bufsize=9740 / nal_hrd=vbr / filler=0 / ip_ratio=1.40 / aq=1:1.00
Default : Yes
Forced : No

Audio #1
ID : 2
Format : AC-3
Format/Info : Audio Coding 3
Codec ID : A_AC3
Duration : 58 min 27 s
Bit rate mode : Constant
Bit rate : 384 kb/s
Channel(s) : 6 channels
Channel positions : Front: L C R, Side: L R, LFE
Sampling rate : 48.0 kHz
Frame rate : 31.250 FPS (1536 SPF)
Bit depth : 16 bits
Compression mode : Lossy
Stream size : 161 MiB (7%)
Title : TVShows
Language : Russian
Service kind : Complete Main
Default : Yes
Forced : Yes

Audio #2
ID : 3
Format : E-AC-3
Format/Info : Enhanced Audio Coding 3
Format profile : E-AC-3+Atmos / E-AC-3
Codec ID : A_EAC3
Duration : 58 min 27 s
Bit rate mode : Constant
Bit rate : 768 kb/s
Channel(s) : 15 objects / 6 channels
Channel positions : 15 objects / Front: L C R, Side: L R, LFE
Sampling rate : 48.0 kHz
Frame rate : 187.500 FPS (256 SPF)
Compression mode : Lossy
Stream size : 321 MiB (13%)
Title : Original
Language : English
Service kind : Complete Main
Default : No
Forced : No

Text
ID : 4
Format : UTF-8
Codec ID : S_TEXT/UTF8
Codec ID/Info : UTF-8 Plain Text
Duration : 35 min 58 s
Bit rate : 1 b/s
Count of elements : 15
Stream size : 373 Bytes (0%)
Title : English
Language : English
Default : No
Forced : No
pb.wtf



Скачать Общество через торрент https://i110.fastpic.ru/big/2019/0513/4c/64a39dc3d605e8c8a8f91ab3268dbf4c.jpg Скачать фильм Общество через торрент бесплантно в хорошем качестве Описание: Сюжет сериала разворачивается в вымышленном городке Нью-Хэм, в Новой Англии. Странным образом ребята попадают в точную копию ... 10 10 2
Торрент: Зарегистрирован [2019-07-15 00:26] · скачан: 8 раз
Статус: √ проверено
Размер: 21.21 GB
Как cкачать? Как скачать Общество через торрент | qTorrent

% Раздел Тема Автор DL S | L
Зарубежные сериалы [ 9.35 GB ] Общество / The Society / Сезон: 1 / Серии: 1-10 из 10 [2019 WEBRip] MVO [TVShows] bober100 Скачать
1 | 0
Зарубежные сериалы [ 14.02 GB ] Общество / The Society / Сезон: 1 / Серии: 1-10 из 10 [2019 WEB-DL 720p] DUB [Пифагор] bober100 Скачать
1 | 0
Зарубежные сериалы [ 7.61 GB ] Общество / The Society / Сезон: 1 / Серии: 1-10 из 10 [2019 WEB-DLRip] killermax2013 Скачать
9 | 2
Зарубежные сериалы [ 22.22 GB ] Общество / The Society / Сезон: 1 / Серии: 1-10 из 10 [2019 WEB-DL 1080p] killermax2013 Скачать
1 | 0

28-11-2019 20:33  

Отключить всю рекламу на сайте

    Дорогой пользователь! Огромная просьба, поблагодарите релизера, оцените раздачу и оставьте свои комментарий, если Вы скачали Общество через торрент бесплатно! Внесите свою лепту в развитие PiratBit!
    Комментировать посты могут только пользователи прошедшие не сложную регистрацию
    Показать сообщения:    

    Общество через торрент
    Скачать бесплатно Общество
    Общество скачать торрент
    Общество смотреть онлайн
    Cкачать фильм Общество бесплатно
    Общество скачать торрент в хорошем качестве
    Общество смотреть онлайн бесплатно в хорошем качестве


    Вы не можете начинать темы
    Вы не можете отвечать на сообщения
    Вы не можете редактировать свои сообщения
    Вы не можете удалять свои сообщения
    Вы не можете голосовать в опросах
    Вы не можете прикреплять файлы к сообщениям
    Вы можете скачивать файлы