Ссылка на приватное зеркало нашего сайта всего за 1$. Внимание количество ограничено!!!

2 сезон

iTunes

1 сезон

1

2 сезон

2 сезон

iTunes

1 сезон

RePack

30

Ultimate

ВАЖНО

ИГРА 18+

pack

RePack

MK11
pack

Забери бонус

RePack

jed

!!Акция!!

Alien_Rage

RePack

fifa19

RePack

Assassins Creed: Odyssey

RePack

NEED FOR SPEED™ PAYBACK

4 сезон

9 сезон

Бесстыжие 9 сезон

Все сериалы

все сериалы на PB.wtf

RePack

FAR CRY 5
  

Голдберги / The Goldbergs / Сезон: 2 / Серии: 1-24 из 24 (Дэвид Катценберг, Джей Чандрашекхар, Лью Шнайдер) [2014, комедия, WEB-DL 1080p] DUB [Paramount Comedy] pb.wtf

Голдберги через торрент pb.wtf

Размер: 28.78 GB | Добавлен: 1 год 4 мес. назад | Торрент скачан:13 раз
Скачать  

15-07-2019 04:10 Голдберги Скачать торрент  

Голдберги / The Goldbergs

Год выпуска: 2013
Страна: США
Жанр: Комедия
Продолжительность: ~ 00:21:30
Перевод: Профессиональный (дублированный) | Paramount Comedy
Субтитры: Английские

Режиссер: Дэвид Катценберг, Джей Чандрашекхар, Лью Шнайдер

В ролях: Венди МакЛендон-Кови, Шон Джамброун, Трой Джентиле, Джефф Гарлин, Джордж Сигал, Хейли Оррантия, Джексон Оделл, Натали Элин Линд, Трой Уинбуш

Описание: До наступления эры блогов о воспитании, наград за посещаемость и аллергии на арахис была простая эпоха, именуемая восьмидесятыми. Счастливые годочки для 11-летнего гика Адама, который встречал их, вооруженный видеокамерой.
Семья Голдбергов – обычная семья, только вот кричат они чаще. Мама Беверли – типичная еврейская мамаша, властная и не уважающая личную свободу. Папа Мюррей пытается воспитывать детей без крика, несмотря на вспыльчивый характер. Сестре и красавице Эрике 17 лет, и с ней лучше не связываться. Отличнику Барри 16 лет, и у него классический синдром среднего ребенка. Младшенький Адам будет режиссером, когда вырастет. Любимый дедушка Эл Соломон – престарелый донжуан, который учит Адама премудростям любви.



Качество: WEB-DL 1080p (Amazon)
Контейнер: MKV

Видео: AVC, 1920x1080 (16:9), 23.976 fps, 7 Mbps
Аудио 1: AC3, 48 KHz, 2 ch, 192 kbps (Paramount Comedy)
Аудио 2: E-AC3, 48 KHz, 6 ch, 640 kbps (Original)


Реклама: Отсутствует
Общее
Уникальный идентификатор : 62782136266026717054709971737056986739 (0x2F3B664D8B5FA22AB7D5A2E7C3114673)
Полное имя : E:\The.Goldbergs.S02.1080p.WEB-DL.x264.(Paramount Comedy)-ParovozN\The.Goldbergs.S02E09.1080p.WEB-DL.x264.Rus.Eng.mkv
Формат : Matroska
Версия формата : Version 4 / Version 2
Размер файла : 1,14 Гбайт
Продолжительность : 21 м. 35 с.
Режим общего битрейта : Переменный
Общий поток : 7548 Кбит/сек
Название фильма : The.Goldbergs.S02E09.1080p.WEB-DL.x264-TrollHD-ParovozN
Дата кодирования : UTC 2018-07-25 16:39:54
Программа кодирования : mkvmerge v24.0.0 ('Beyond The Pale') 64-bit
Библиотека кодирования : libebml v1.3.6 + libmatroska v1.4.9

Видео
Идентификатор : 1
Формат : AVC
Формат/Информация : Advanced Video Codec
Профиль формата : High@L4
Настройки формата : CABAC / 4 Ref Frames
Параметр CABAC формата : Да
Параметр RefFrames формата : 4 кадра
Идентификатор кодека : V_MPEG4/ISO/AVC
Продолжительность : 21 м. 35 с.
Вид битрейта : Переменный
Битрейт : 6714 Кбит/сек
Максимальный битрейт : 15,0 Мбит/сек
Ширина : 1920 пикселей
Высота : 1080 пикселей
Соотношение сторон : 16:9
Режим частоты кадров : Постоянный
Частота кадров : 23,976 (24000/1001) кадра/сек
Цветовое пространство : YUV
Субдискретизация насыщенности : 4:2:0
Битовая глубина : 8 бит
Тип развёртки : Прогрессивная
Бит/(Пиксели*Кадры) : 0.135
Размер потока : 1,01 Гбайт (89%)
Заголовок : The Goldbergs S02E09
Библиотека кодирования : x264 core 148 r2623 d5b2374
Настройки программы : cabac=1 / ref=4 / deblock=1:-1:-1 / analyse=0x3:0x133 / me=umh / subme=9 / psy=1 / psy_rd=1.00:0.15 / mixed_ref=1 / me_range=24 / chroma_me=1 / trellis=2 / 8x8dct=1 / cqm=0 / deadzone=21,11 / fast_pskip=1 / chroma_qp_offset=-3 / threads=34 / lookahead_threads=5 / sliced_threads=0 / nr=150 / decimate=1 / interlaced=0 / bluray_compat=0 / constrained_intra=0 / bframes=8 / b_pyramid=2 / b_adapt=2 / b_bias=0 / direct=3 / weightb=1 / open_gop=0 / weightp=2 / keyint=120 / keyint_min=61 / scenecut=0 / intra_refresh=0 / rc_lookahead=120 / rc=crf / mbtree=1 / crf=18.0 / qcomp=0.60 / qpmin=0 / qpmax=69 / qpstep=4 / vbv_maxrate=15000 / vbv_bufsize=31250 / crf_max=0.0 / nal_hrd=vbr / filler=0 / ip_ratio=1.40 / aq=3:1.00
Default : Да
Forced : Нет
Цветовой диапазон : Limited
Основные цвета : BT.709
Характеристики трансфера : BT.709
Коэффициенты матрицы : BT.709

Аудио #1
Идентификатор : 2
Формат : AC-3
Формат/Информация : Audio Coding 3
Идентификатор кодека : A_AC3
Продолжительность : 21 м. 35 с.
Вид битрейта : Постоянный
Битрейт : 192 Кбит/сек
Каналы : 2 канала
Расположение каналов : Front: L R
Частота : 48,0 КГц
Частота кадров : 31,250 кадров/сек (1536 SPF)
Битовая глубина : 16 бит
Метод сжатия : С потерями
Размер потока : 29,6 Мбайт (3%)
Заголовок : ДБ (Paramount Comedy)
Язык : Russian
ServiceKind/String : Complete Main
Default : Да
Forced : Нет

Аудио #2
Идентификатор : 3
Формат : E-AC-3
Формат/Информация : Enhanced Audio Coding 3
Идентификатор кодека : A_EAC3
Продолжительность : 21 м. 35 с.
Вид битрейта : Постоянный
Битрейт : 640 Кбит/сек
Каналы : 6 каналов
Расположение каналов : Front: L C R, Side: L R, LFE
Частота : 48,0 КГц
Частота кадров : 187,500 кадров/сек (256 SPF)
Метод сжатия : С потерями
Размер потока : 98,8 Мбайт (8%)
Заголовок : English
Язык : English
ServiceKind/String : Complete Main
Default : Нет
Forced : Нет

Текст
Идентификатор : 4
Формат : UTF-8
Идентификатор кодека : S_TEXT/UTF8
Идентификатор кодека/Информация : UTF-8 Plain Text
Продолжительность : 21 м. 25 с.
Битрейт : 116 бит/сек
ElementCount : 565
Размер потока : 18,3 Кбайт (0%)
Заголовок : English
Язык : English
Default : Нет
Forced : Нет
pb.wtf



Скачать Голдберги через торрент http://c.radikal.ru/c02/1808/e9/0f6013914dac.jpg Скачать фильм Голдберги через торрент бесплантно в хорошем качестве Описание: До наступления эры блогов о воспитании, наград за посещаемость и аллергии на арахис была простая эпоха, именуемая восьмидесятыми. ... 10 10 3
Торрент: Зарегистрирован [2019-07-15 04:10] · скачан: 13 раз
Статус: √ проверено
Размер: 28.78 GB
Как cкачать? Как скачать Голдберги через торрент | qTorrent

28-11-2019 20:33  

Отключить всю рекламу на сайте

    Дорогой пользователь! Огромная просьба, поблагодарите релизера, оцените раздачу и оставьте свои комментарий, если Вы скачали Голдберги через торрент бесплатно! Внесите свою лепту в развитие PiratBit!
    Комментировать посты могут только пользователи прошедшие не сложную регистрацию
    Показать сообщения:    

    Голдберги через торрент
    Скачать бесплатно Голдберги
    Голдберги скачать торрент
    Голдберги смотреть онлайн
    Cкачать фильм Голдберги бесплатно
    Голдберги скачать торрент в хорошем качестве
    Голдберги смотреть онлайн бесплатно в хорошем качестве


    Вы не можете начинать темы
    Вы не можете отвечать на сообщения
    Вы не можете редактировать свои сообщения
    Вы не можете удалять свои сообщения
    Вы не можете голосовать в опросах
    Вы не можете прикреплять файлы к сообщениям
    Вы можете скачивать файлы