>

7.4

iTunes

7.4

2 сезон

9.4

1 сезон

1

7.4

2 сезон

7.2

iTunes

6.0

MVO

13

6.1

iTunes

8.3

Пиратка

30

ULTIMATE

pack

9.9

Лицензия

ВАЖНО

ИГРА 18+

pack

7.3

RePack

MK11

7.7

RePack

jed

7.8

RePack

fifa19

8.5

RePack

RDR2

RePack

NEED FOR SPEED™ PAYBACK

1 сезон

9 сезон

Бесстыжие 9 сезон

Все сериалы

все сериалы на PB.wtf

RePack

FAR CRY 5

Anonymous, доброе утро, мы катастрофически не успеваем собрать деньги на оплату серверов, помогите нам пожалуйста 5,10,15р., для нас важна любая помощь . В качестве благодарности мы отключим Вам всю рекламу на сайте (укажите свой ник в строку Ваше имя)!

×
  
Magnet ссылка

Смертельный выстрел / Насмерть / Dead Bang (Джон Франкенхаймер / John Frankenheimer) [1989, боевик, триллер, WEB-DL 1080p от KORSAR] [AVO (Алексей Михалев)] pb.wtf

Смертельный выстрел через торрент pb.wtf

Размер: 10.07 GB | Добавлен: 2 года 6 мес. назад | Торрент скачан:1 раз
Смотреть онлайн Смертельный выстрел | Скачать    Ребята, помогите собрать деньги на оплату серверов!!!

15-07-2019 08:33 Смертельный выстрел Скачать торрент  

Смертельный выстрел / Насмерть / Dead Bang

Страна: США
Студия: Lorimar Film Entertainment
Жанр: боевик, триллер
Год выпуска: 1989

Режиссер: Джон Франкенхаймер / John Frankenheimer

В ролях: Дон Джонсон / Don Johnson, Пенелопа Энн Миллер / Penelope Ann Miller, Уильям Форсайт / William Forsythe, Боб Балабан / Bob Balaban, Франк Милитэри / Frank Military, Тейт Донован / Tate Donovan, Антони Стутс / Antoni Stutz, Микки Джонс / Mickey Jones и др.

Описание: Опытный лос-анджелесский полицейский Джерри Бек (Джонсон) расследует убийство офицера полиции и выходит на след злодейского заговора банды белых расистов. Знакомый сюжет оживляет прекрасная игра актерского ансамбля.

Релиз от:

Продолжительность: 01:41:50
Перевод: Авторский
Субтитры: Английские, финские, французские
Навигация по главам: Есть

Качество: WEB-DL 1080p
Видео: MPEG-4 AVC, 13,5 Мбит/сек/сек, 1920x1080, 23,976 кадра/сек
Аудио #1: AC3, 2 ch, 192 Кбит/сек | Русский, авторский (одноголосый закадровый) Алексей Михалев
Аудио #2: EAC3, 2 ch, 224 Кбит/сек | Английский, оригинал
Общее
Уникальный идентификатор : 187846883732319650089079557007007494729 (0x8D51FE6BE78589A591B6168359173249)
Полное имя : Смертельный.выстрел.1989.WEB-DL.1080p.mkv
Формат : Matroska
Версия формата : Version 2
Размер файла : 10,1 Гбайт
Продолжительность : 1 ч. 41 м.
Режим общего битрейта : Переменный
Общий поток : 14,2 Мбит/сек
Дата кодирования : UTC 2018-04-07 10:58:19
Программа кодирования : mkvmerge v5.8.0 ('No Sleep / Pillow') built on Sep 2 2012 15:37:04
Библиотека кодирования : libebml v1.2.3 + libmatroska v1.3.0

Видео
Идентификатор : 1
Формат : AVC
Формат/Информация : Advanced Video Codec
Профиль формата : High@L4
Настройки формата : CABAC / 4 Ref Frames
Параметр CABAC формата : Да
Параметр RefFrames формата : 4 кадра
Идентификатор кодека : V_MPEG4/ISO/AVC
Продолжительность : 1 ч. 41 м.
Вид битрейта : Переменный
Битрейт : 13,5 Мбит/сек
Максимальный битрейт : 15,0 Мбит/сек
Ширина : 1920 пикселей
Высота : 1080 пикселей
Соотношение сторон : 16:9
Режим частоты кадров : Постоянный
Частота кадров : 23,976 (24000/1001) кадра/сек
Цветовое пространство : YUV
Субдискретизация насыщенности : 4:2:0
Битовая глубина : 8 бит
Тип развёртки : Прогрессивная
Бит/(Пиксели*Кадры) : 0.271
Размер потока : 9,57 Гбайт (95%)
Библиотека кодирования : x264 core 148 r2623 d5b2374
Настройки программы : cabac=1 / ref=4 / deblock=1:-1:-1 / analyse=0x3:0x133 / me=umh / subme=9 / psy=1 / psy_rd=1.00:0.15 / mixed_ref=1 / me_range=24 / chroma_me=1 / trellis=2 / 8x8dct=1 / cqm=0 / deadzone=21,11 / fast_pskip=1 / chroma_qp_offset=-3 / threads=34 / lookahead_threads=5 / sliced_threads=0 / nr=150 / decimate=1 / interlaced=0 / bluray_compat=0 / constrained_intra=0 / bframes=8 / b_pyramid=2 / b_adapt=2 / b_bias=0 / direct=3 / weightb=1 / open_gop=0 / weightp=2 / keyint=120 / keyint_min=61 / scenecut=0 / intra_refresh=0 / rc_lookahead=120 / rc=crf / mbtree=1 / crf=18.0 / qcomp=0.60 / qpmin=0 / qpmax=69 / qpstep=4 / vbv_maxrate=15000 / vbv_bufsize=31250 / crf_max=0.0 / nal_hrd=vbr / filler=0 / ip_ratio=1.40 / aq=3:1.00
Язык : English
Default : Да
Forced : Нет
Цветовой диапазон : Limited
Основные цвета : BT.709
Характеристики трансфера : BT.709
Коэффициенты матрицы : BT.709

Аудио #1
Идентификатор : 2
Формат : AC-3
Формат/Информация : Audio Coding 3
Идентификатор кодека : A_AC3
Продолжительность : 1 ч. 41 м.
Вид битрейта : Постоянный
Битрейт : 192 Кбит/сек
Каналы : 2 канала
Расположение каналов : Front: L R
Частота : 48,0 КГц
Частота кадров : 31,250 кадров/сек (1536 SPF)
Битовая глубина : 16 бит
Метод сжатия : С потерями
Размер потока : 140 Мбайт (1%)
Заголовок : AVO | А. Михалев
Язык : Russian
По умолчанию : Да
Принудительно : Нет

Аудио #2
Идентификатор : 3
Формат : E-AC-3
Формат/Информация : Enhanced Audio Coding 3
Идентификатор кодека : A_EAC3
Продолжительность : 1 ч. 41 м.
Вид битрейта : Постоянный
Битрейт : 224 Кбит/сек
Каналы : 2 канала
Расположение каналов : Front: L R
Частота : 48,0 КГц
Частота кадров : 187,500 кадров/сек (256 SPF)
Метод сжатия : С потерями
Размер потока : 163 Мбайт (2%)
Заголовок : Original
Язык : English
По умолчанию : Нет
Принудительно : Нет

Текст #1
Идентификатор : 4
Формат : UTF-8
Идентификатор кодека : S_TEXT/UTF8
Идентификатор кодека/Информация : UTF-8 Plain Text
Язык : English
По умолчанию : Нет
Принудительно : Нет

Текст #2
Идентификатор : 5
Формат : UTF-8
Идентификатор кодека : S_TEXT/UTF8
Идентификатор кодека/Информация : UTF-8 Plain Text
Заголовок : SDH
Язык : English
По умолчанию : Нет
Принудительно : Нет

Текст #3
Идентификатор : 6
Формат : UTF-8
Идентификатор кодека : S_TEXT/UTF8
Идентификатор кодека/Информация : UTF-8 Plain Text
Язык : Finnish
По умолчанию : Нет
Принудительно : Нет

Текст #4
Идентификатор : 7
Формат : UTF-8
Идентификатор кодека : S_TEXT/UTF8
Идентификатор кодека/Информация : UTF-8 Plain Text
Язык : French
По умолчанию : Нет
Принудительно : Нет

Меню
00:00:00.000 : en:1.
00:04:05.976 : en:2.
00:07:56.976 : en:3.
00:11:48.976 : en:4.
00:16:40.976 : en:5.
00:18:54.976 : en:6.
00:21:17.976 : en:7.
00:25:12.976 : en:8.
00:28:28.976 : en:9.
00:31:28.976 : en:10.
00:34:01.976 : en:11.
00:36:58.976 : en:12.
00:38:52.976 : en:13.
00:41:36.976 : en:14.
00:43:56.976 : en:15.
00:49:02.976 : en:16.
00:51:06.976 : en:17.
00:53:06.976 : en:18.
00:54:57.976 : en:19.
01:00:28.976 : en:20.
01:04:50.976 : en:21.
01:08:48.976 : en:22.
01:11:45.976 : en:23.
01:15:52.976 : en:24.
01:19:29.976 : en:25.
01:25:50.976 : en:26.
01:29:42.976 : en:27.
01:34:30.976 : en:28.
01:36:34.976 : en:29.
01:37:41.976 : en:30.
pb.wtf



Скачать Смертельный выстрел через торрент https://d.radikal.ru/d29/1907/23/bb414dee7d57.png Скачать, смотреть онлайн Смертельный выстрел бесплантно в хорошем качестве Описание: Опытный лос-анджелесский полицейский Джерри Бек (Джонсон) расследует убийство офицера полиции и выходит на след злодейского ... 5 10 1
Торрент: Зарегистрирован [2019-07-15 08:33] · скачан: 1 раз
Статус: √ проверено
Размер: 10.07 GB
Как cкачать? Как скачать Смертельный выстрел через торрент | UTorrent



Последний раз редактировалось: filbi1976 (2019-07-15 08:55), всего редактировалось 1 раз

28-11-2019 20:33  

Отключить всю рекламу на сайте

    Дорогой пользователь! Огромная просьба, поблагодарите релизера, оцените раздачу и оставьте свои комментарий, если Вы скачали Смертельный выстрел через торрент бесплатно!
    Комментировать посты могут только пользователи прошедшие не сложную регистрацию
    Показать сообщения:    

    Смертельный выстрел через торрент
    Скачать бесплатно Смертельный выстрел
    Смертельный выстрел скачать торрент
    Смертельный выстрел смотреть онлайн
    Cкачать фильм Смертельный выстрел бесплатно
    Смертельный выстрел скачать торрент в хорошем качестве
    Смертельный выстрел смотреть онлайн бесплатно в хорошем качестве


    Вы не можете начинать темы
    Вы не можете отвечать на сообщения
    Вы не можете редактировать свои сообщения
    Вы не можете удалять свои сообщения
    Вы не можете голосовать в опросах
    Вы не можете прикреплять файлы к сообщениям
    Вы можете скачивать файлы