Ссылка на приватное зеркало нашего сайта всего за 1$. Внимание количество ограничено!!!

2 сезон

iTunes

1 сезон

1

2 сезон

2 сезон

iTunes

1 сезон

RePack

30

Новинка

ВАЖНО

ИГРА 18+

pack

RePack

MK11
pack

Забери бонус

RePack

jed

!!Акция!!

Alien_Rage

RePack

fifa19

RePack

Assassins Creed: Odyssey

RePack

NEED FOR SPEED™ PAYBACK

4 сезон

9 сезон

Бесстыжие 9 сезон

Все сериалы

все сериалы на PB.wtf

RePack

FAR CRY 5
  

Гомер и Эдди / Homer And Eddie (Андрей Кончаловский / Andrey Konchalovskiy) [1989, Комедия, драма, криминал, WEB-DLRip 720p от KORSAR] [MVO + 2xAVO] pb.wtf

Гомер и Эдди через торрент pb.wtf

Размер: 3.91 GB | Добавлен: 1 год 4 мес. назад | Торрент скачан:5 раз
Скачать  

15-07-2019 09:48 Гомер и Эдди Скачать торрент  

Гомер и Эдди / Homer And Eddy

«Meet Homer and Eddie. During the next 1200 miles, their lives will be enriched beyond their wildest dreams»

Страна: США
Жанр: Комедия, драма, криминал
Год выпуска: 1989
Продолжительность: 01:35:43
Режиссер: Андрей Кончаловский / Andrey Konchalovskiy

В ролях: Джеймс Белуши / James Belushi, Вупи Голдберг / Whoopi Goldberg, Джим Мэпп / Jim Mapp, Джон Уотерз / John Waters, Роберт Глодини / Robert Glaudini, Джеймс Тил / James Thiel, Джефф Тил / Jeff Thiel, Энди Джэррелл / Andy Jarrell, Энн Рэмси / Anne Ramsey, Микелле Милантони / Michelle Milantoni, Мики Джоунс / Mickey Jones, Энни О’Доннелл / Annie O’Donnell, Кэтрин Барресе / Katherine Barrese

Описание: Гомер, добродушный, но психически неполноценный человек с сознанием ребёнка, стремится попасть в дом своего умирающего отца. По дороге он встречает Эдди, смертельно больную и озлобленную женщину, сбежавшую из больницы. Вместе с Гомером они продолжают своё главное в жизни путешествие, в котором им нечего терять…
«Гомер путешествует через Америку и находит себе попутчицу — Эдди. Двое бездомных в огромном мире… Сироты общества, нищие духом. Один верующий, другой атеист. Что-то есть в них и от героев феллиниевской „Дороги“, и от „Очарованного странника“ Лескова. Сценарий показался мне интересным. В нем была какая-то странность, мистический финал — с Христом, точнее, символическим Христом, которого изображает бродячий актёр. Это ещё одна совсем не американская картина, хотя снята в Америке». (Из книги А. Кончаловского «Возвышающий обман», 1999)

Продолжительность: 01:39:50
Перевод: Профессиональный многоголосый, авторский одноголосый
Субтитры: Английские

Качество: WEB-DLRip 720p
Формат: MKV

Видео: MPEG-4 AVC, 4772 Кбит/сек, 1280x720, 23,976 кадра/сек
Аудио #1: AC3, 2 ch, 224 Кбит/сек | Русский, профессиональный (многоголосый закадровый)
Аудио #2: AC3, 2 ch, 192 Кбит/сек | Русский, авторский (одноголосый закадровый) Андрей Гаврилов
Аудио #3: AC3, 2 ch, 192 Кбит/сек | Русский, авторский (одноголосый закадровый) Василий Горчаков
Аудио #4: AC3, 2 ch, 224 Кбит/сек | Английский, оригинал
Уникальный идентификатор : 219020953593794172200695068491609721699 (0xA4C5E6BB6E0EE956902B6103A496CB63)
Полное имя : Homer.and.Eddie.1989.WEBRip.720p.mkv
Формат : Matroska
Версия формата : Version 2
Размер файла : 3,91 Гбайт
Продолжительность : 1 ч. 39 м.
Общий поток : 5608 Кбит/сек
Название фильма : Homer.and.Eddie.1989.WEBRip.720p.MZMA
Дата кодирования : UTC 2017-04-26 22:01:33
Программа кодирования : mkvmerge v3.4.0 ('Rapunzel') сборка от May 15 2010 09:38:20
Библиотека кодирования : libebml v0.8.0 + libmatroska v0.9.0

Видео
Идентификатор : 1
Формат : AVC
Формат/Информация : Advanced Video Codec
Профиль формата : High@L4.1
Параметр CABAC формата : Да
Параметр ReFrames формата : 8 кадров
Идентификатор кодека : V_MPEG4/ISO/AVC
Продолжительность : 1 ч. 39 м.
Битрейт : 4772 Кбит/сек
Ширина : 1280 пикселей
Высота : 720 пикселей
Соотношение сторон : 16:9
Режим частоты кадров : Постоянный
Частота кадров : 23,976 (24000/1001) кадра/сек
Цветовое пространство : YUV
Субдискретизация насыщенности : 4:2:0
Битовая глубина : 8 бит
Тип развёртки : Прогрессивная
Бит/(Пиксели*Кадры) : 0.216
Размер потока : 3,25 Гбайт (83%)
Заголовок : RIP - MZMA
Библиотека кодирования : x264 core 130 r2273 b3065e6
Настройки программы : cabac=1 / ref=9 / deblock=1:-3:-3 / analyse=0x3:0x133 / me=umh / subme=11 / psy=1 / psy_rd=1.00:0.00 / mixed_ref=0 / me_range=48 / chroma_me=1 / trellis=2 / 8x8dct=1 / cqm=0 / deadzone=21,11 / fast_pskip=1 / chroma_qp_offset=-2 / threads=6 / lookahead_threads=1 / sliced_threads=0 / nr=0 / decimate=1 / interlaced=0 / bluray_compat=0 / constrained_intra=0 / bframes=16 / b_pyramid=1 / b_adapt=2 / b_bias=0 / direct=1 / weightb=1 / open_gop=0 / weightp=1 / keyint=240 / keyint_min=24 / scenecut=40 / intra_refresh=0 / rc_lookahead=60 / rc=2pass / mbtree=1 / bitrate=4772 / ratetol=1.0 / qcomp=0.60 / qpmin=0 / qpmax=69 / qpstep=4 / cplxblur=20.0 / qblur=0.5 / vbv_maxrate=62500 / vbv_bufsize=78125 / nal_hrd=none / ip_ratio=1.40 / aq=1:1.00
Язык : English
Default : Да
Forced : Нет
Цветовой диапазон : Limited
Основные цвета : BT.709
Характеристики трансфера : BT.709
Коэффициенты матрицы : BT.709

Аудио #1
Идентификатор : 2
Формат : AC-3
Формат/Информация : Audio Coding 3
Параметр Endianness формата : Big
Идентификатор кодека : A_AC3
Продолжительность : 1 ч. 39 м.
Вид битрейта : Постоянный
Битрейт : 224 Кбит/сек
Каналы : 2 канала
Расположение каналов : Front: L R
Частота : 48,0 КГц
Частота кадров : 31,250 кадров/сек (1536 spf)
Битовая глубина : 16 бит
Метод сжатия : С потерями
Размер потока : 160 Мбайт (4%)
Заголовок : MVO
Язык : Russian
ServiceKind/String : Complete Main
Default : Да
Forced : Нет

Аудио #2
Идентификатор : 3
Формат : AC-3
Формат/Информация : Audio Coding 3
Параметр Endianness формата : Big
Идентификатор кодека : A_AC3
Продолжительность : 1 ч. 39 м.
Вид битрейта : Постоянный
Битрейт : 192 Кбит/сек
Каналы : 2 канала
Расположение каналов : Front: L R
Частота : 48,0 КГц
Частота кадров : 31,250 кадров/сек (1536 spf)
Битовая глубина : 16 бит
Метод сжатия : С потерями
Размер потока : 137 Мбайт (3%)
Заголовок : AVO | А. Гаврилов
Язык : Russian
ServiceKind/String : Complete Main
Default : Нет
Forced : Нет

Аудио #3
Идентификатор : 4
Формат : AC-3
Формат/Информация : Audio Coding 3
Параметр Endianness формата : Big
Идентификатор кодека : A_AC3
Продолжительность : 1 ч. 39 м.
Вид битрейта : Постоянный
Битрейт : 192 Кбит/сек
Каналы : 2 канала
Расположение каналов : Front: L R
Частота : 48,0 КГц
Частота кадров : 31,250 кадров/сек (1536 spf)
Битовая глубина : 16 бит
Метод сжатия : С потерями
Размер потока : 137 Мбайт (3%)
Заголовок : AVO | В. Горчаков
Язык : Russian
ServiceKind/String : Complete Main
Default : Нет
Forced : Нет

Аудио #4
Идентификатор : 5
Формат : AC-3
Формат/Информация : Audio Coding 3
Параметр Endianness формата : Big
Идентификатор кодека : A_AC3
Продолжительность : 1 ч. 39 м.
Вид битрейта : Постоянный
Битрейт : 224 Кбит/сек
Каналы : 2 канала
Расположение каналов : Front: L R
Частота : 48,0 КГц
Частота кадров : 31,250 кадров/сек (1536 spf)
Битовая глубина : 16 бит
Метод сжатия : С потерями
Размер потока : 160 Мбайт (4%)
Заголовок : Original
Язык : English
ServiceKind/String : Complete Main
Default : Нет
Forced : Нет

Текст
Идентификатор : 6
Формат : UTF-8
Идентификатор кодека : S_TEXT/UTF8
Идентификатор кодека/Информация : UTF-8 Plain Text
Язык : English
Default : Нет
Forced : Нет
В правом нижнем углу кадра присутствует, временами всплывающий, логотип телеканала STARZ
pb.wtf



Скачать Гомер и Эдди через торрент https://c.radikal.ru/c01/1907/a8/6014bd5b604b.png Скачать фильм Гомер и Эдди через торрент бесплантно в хорошем качестве Описание: Гомер, добродушный, но психически неполноценный человек с сознанием ребёнка, стремится попасть в дом своего умирающего отца. По ... 10 10 1
Торрент: Зарегистрирован [2019-07-15 09:48] · скачан: 5 раз
Статус: √ проверено
Размер: 3.91 GB
Как cкачать? Как скачать Гомер и Эдди через торрент | qTorrent

% Раздел Тема Автор DL S | L
Фильмы с авторской озвучкой [ 1.37 GB ] Гомер и Эдди / Homer And Eddie [1989 DVDRip] [AVO] killermax2013 Скачать
1 | 0

28-11-2019 20:33  

Отключить всю рекламу на сайте

    Дорогой пользователь! Огромная просьба, поблагодарите релизера, оцените раздачу и оставьте свои комментарий, если Вы скачали Гомер и Эдди через торрент бесплатно! Внесите свою лепту в развитие PiratBit!
    Комментировать посты могут только пользователи прошедшие не сложную регистрацию
    Показать сообщения:    

    Гомер и Эдди через торрент
    Скачать бесплатно Гомер и Эдди
    Гомер и Эдди скачать торрент
    Гомер и Эдди смотреть онлайн
    Cкачать фильм Гомер и Эдди бесплатно
    Гомер и Эдди скачать торрент в хорошем качестве
    Гомер и Эдди смотреть онлайн бесплатно в хорошем качестве


    Вы не можете начинать темы
    Вы не можете отвечать на сообщения
    Вы не можете редактировать свои сообщения
    Вы не можете удалять свои сообщения
    Вы не можете голосовать в опросах
    Вы не можете прикреплять файлы к сообщениям
    Вы можете скачивать файлы