новый адрес
Ссылка на приватное зеркало всего за 1$. Внимание количество ограничено!!!

iTunes

1+1

iTunes

мы

iTunes

1

iTunes

Чернобыль

iTunes

Ральф против интернета

Лицензия

ПШазам

Лицензия

Оно 2

Лицензия

30
pack

Вам бонус

ВАЖНО

!!Акция!!

Alien_RageХит недели

RePack

Resident Evil 21

ИГРА 18+

pack

RePack

jed

!!Акция!!

Alien_Rage

RePack

fifa19

RePack

Assassins Creed: Odyssey

RePack

NEED FOR SPEED™ PAYBACK

3 сезон

9 сезон

Бесстыжие 9 сезон

Все сериалы

все сериалы на PB.wtf

RePack

FAR CRY 5
Ребята, катастрофически не хватает 1900р. для оплаты серверов за Октябрь (всвязи с блокировками трафик упал в 3 раза), 1-2р., выручайте.
  

Беглецы (Ара Оганесян) [2018, комедия, WEB-DLRip] [iTunes] pb.wtf

Беглецы через торрент pb.wtf

Раздают: 4 [ 0.5 KB/s ]
Размер: 1.46 GB | Добавлен: 3 мес. 19 д. назад | Торрент скачан:306 раз
Скачать  

15-07-2019 14:25 Беглецы Скачать торрент  

Беглецы
Год выпуска: 2018
Страна: Россия, Латвия
Жанр: комедия
Продолжительность: 01:23:32
Перевод: Не требуется | iTunes
Субтитры: отсутствуют

Режиссер: Ара Оганесян

rating

В ролях: Евгений Ткачук, Равшана Куркова, Константин Крюков, Максим Виторган, Алексей Маклаков, Анастасия Калманович, Олег Верещагин

Описание: Незадачливый всенародный любимец и поп-певец Алекс в компании киллера Степы и нимфоманки Насти убегают от нанятых продюсерским центром всемогущих убийц с крупнокалиберными автоматами и черным хаммером.

Качество: WEB-DLRip
Формат: AVI

Видео: Xvid 73, 704x384, ~2103 kbps, 24,000 fps
Аудио: русский, AC3, 5.1 ch, 48 kHz, 384 kbps
скриншот  скриншот  скриншот  скриншот  скриншот  

Общее
Полное имя : E:Torrent2BegleciWEBDLRip.avi
Формат : AVI
Формат/Информация : Audio Video Interleave
Профиль формата : OpenDML
Размер файла : 1,46 Гбайт
Продолжительность : 1 ч. 23 м.
Общий поток : 2499 Кбит/сек
Программа кодирования : XviD4PSP 6.0 / 53.6.0

Видео
Идентификатор : 0
Формат : MPEG-4 Visual
Профиль формата : Advanced Simple@L5
Настройки формата : BVOP1 / Custom Matrix
Параметр BVOP формата : 1
Параметр QPel формата : Нет
Параметр GMC формата : Без точки перехода
Параметр матрицы формата : Выборочная
Идентификатор кодека : XVID
Идентификатор кодека/Подсказка : XviD
Продолжительность : 1 ч. 23 м.
Битрейт : 2103 Кбит/сек
Ширина : 704 пикселя
Высота : 384 пикселя
Соотношение сторон : 1,85:1
Частота кадров : 24,000 кадра/сек
Цветовое пространство : YUV
Субдискретизация насыщенности : 4:2:0
Битовая глубина : 8 бит
Тип развёртки : Прогрессивная
Метод сжатия : С потерями
Бит/(Пиксели*Кадры) : 0.324
Размер потока : 1,23 Гбайт (84%)
Библиотека кодирования : XviD 73

Аудио
Идентификатор : 1
Формат : AC-3
Формат/Информация : Audio Coding 3
Параметр Endianness формата : Big
Идентификатор кодека : 2000
Продолжительность : 1 ч. 23 м.
Вид битрейта : Постоянный
Битрейт : 384 Кбит/сек
Каналы : 6 каналов
Расположение каналов : Front: L C R, Side: L R, LFE
Частота : 48,0 КГц
Частота кадров : 31,250 кадров/сек (1536 SPF)
Битовая глубина : 16 бит
Метод сжатия : С потерями
Размер потока : 229 Мбайт (15%)
Выравнивание : Соединение по промежуткам
Продолжительность промежутка : 32 мс. (0,77 видеокадр)
pb.wtf



Скачать Беглецы через торрент https://c.radikal.ru/c30/1907/91/568a8854ca20.jpg Скачать фильм Беглецы через торрент бесплантно в хорошем качестве Описание: Незадачливый всенародный любимец и поп-певец Алекс в компании киллера Степы и нимфоманки Насти убегают от нанятых продюсерским ... 8.2 10 13
Торрент: Зарегистрирован [2019-08-02 19:39] · скачан: 306 раз
Статус: √ проверено
Размер: 1.46 GB
Как cкачать? Как скачать Беглецы через торрент | qTorrent

% Раздел Тема Автор DL S | L
Зарубежные сериалы [ 31.62 GB ] Беглецы / Runaways / Сезон: 2 / Серии: 1-13 из 13 [2018 WEB-DL 1080p] MVO [Lostfilm] bober100 Скачать
1 | 0
Наши новые фильмы 2018-2019 [ 1.55 GB ] Беглецы [2018 WEB-DLRip-AVC] - ExKinoRay Enigma2010 Скачать
20 | 0
Наши фильмы (HD, WEB-DL 720p, 1080p) [ 3.27 GB ] Беглецы [2018 WEB-DL 1080p] bober100 Скачать
4 | 0
Фильмы с авторской озвучкой [ 1.45 GB ] Охота на роботов / Беглец / Runaway [1984 Фантастический BDRip] [AVO] killermax2013 Скачать
1 | 0
Фантастика [ 498 MB ] Блейк Крауч - Беглецы. Неземное сияние [Михаил Росляков 2019 96 kbps MP3] bober100 Скачать
1 | 0
Фильмы (Blu-ray, BD-Remux, HDDVD) [ 53.31 GB ] Беглец / The Fugitive [1993 Blu-Ray Remux 1080p] 3xDUB 2xMVO 4xDVO 6xAVO Леонид Ильич Скачать
1 | 0
Фильмы [HD 720p, 1080p] (Хороший звук DUB, MVO) [ 7.83 GB ] Поезд-беглец / Runaway Train [1985 BDRip 720p] DUB 2xDVO 4xAVO Леонид Ильич Скачать
1 | 0


Последний раз редактировалось: bober100 (2019-08-02 19:39), всего редактировалось 1 раз


>> Регистрируемся здесь <<






Отзывы и комментарии о схеме читаем и пишем здесь: ---> Отзывы и комментарии о схеме

Новые благодарочки в телеграм довольных пользователей:
скриншот   скриншот   скриншот   скриншот   скриншот

03-08-2019 16:04 Беглецы Скачать торрент  

Рашен говяшен pb.wtf



    Дорогой пользователь! Огромная просьба, поблагодарите релизера, оцените раздачу и оставьте свои комментарий, если Вы скачали Беглецы через торрент бесплатно! Внесите свою лепту в развитие PiratBit!
    Комментировать посты могут только пользователи прошедшие не сложную регистрацию
    Показать сообщения:    

    Беглецы через торрент
    Скачать бесплатно Беглецы
    Беглецы скачать торрент
    Беглецы смотреть онлайн
    Cкачать фильм Беглецы бесплатно
    Беглецы скачать торрент в хорошем качестве
    Беглецы смотреть онлайн бесплатно в хорошем качестве


    Вы не можете начинать темы
    Вы не можете отвечать на сообщения
    Вы не можете редактировать свои сообщения
    Вы не можете удалять свои сообщения
    Вы не можете голосовать в опросах
    Вы не можете прикреплять файлы к сообщениям
    Вы можете скачивать файлы