Ссылка на приватное зеркало нашего сайта всего за 1$. Внимание количество ограничено!!!

2 сезон

iTunes

1 сезон

1

2 сезон

2 сезон

iTunes

1 сезон

RePack

30

Ultimate

ВАЖНО

ИГРА 18+

pack

RePack

MK11
pack

Забери бонус

RePack

jed

!!Акция!!

Alien_Rage

RePack

fifa19

RePack

Assassins Creed: Odyssey

RePack

NEED FOR SPEED™ PAYBACK

4 сезон

9 сезон

Бесстыжие 9 сезон

Все сериалы

все сериалы на PB.wtf

RePack

FAR CRY 5
  

Дантист на диком западе / The Shakiest Gun in the West (Алан Рафкин / Alan Rafkin) [1968, комедийный вестерн, WEB-DL 1080p от KORSAR] [MVO] pb.wtf

Дантист на диком западе через торрент pb.wtf

Размер: 9.46 GB | Добавлен: 1 год 4 мес. назад | Торрент скачан:2 раза
Скачать  

15-07-2019 16:00 Дантист на диком западе Скачать торрент  

Дантист на диком западе / The Shakiest Gun in the West

Страна: США
Жанр: комедийный вестерн
Год выпуска: 1968
Продолжительность: 01:40:32
Режиссер: Алан Рафкин / Alan Rafkin

В ролях: Дон Ноттс, Барбара Роудс, Джеки Кугэн, Дон «Красный» Бэрри, Рут МакДевитт, Фрэнк МакГрат, Терри Уилсон, Карл Бэллэнтайн

Описание: Джесс Хэйвуд, выпускник медицинского колледжа в Филадельфии, в 1870
году отправляется на Дикий Запад, где собирается бороться со стоматологическим
невежеством населения. Тем временем знаменитой грабительнице Пенелопе по прозвищу
Плохая Пенни полиция гарантирует помилование, если она выдаст своих сообщников,
других знаменитых грабителей.
Пенни примечает простофилю дантиста, женит его на себе, а затем, путем переодевания
превращает его в различных легендарных личностей, чье имя гремит на Диком Западе.
Дантист меняет профессию и превращается в вольного стрелка.

Релиз от:

Перевод: Профессиональный многоголосый
Субтитры: Английские
Навигация по главам: Есть

Качество: WEB-DL 1080p
Формат: MKV

Видео: MPEG-4 AVC, 12,8 Мбит/сек, 1920x816, 23,976 кадра/сек
Аудио #1: AC3, 2 ch, 192 Кбит/сек | Русский, профессиональный (многоголосый закадровый) 6-й канал СТС
Аудио #2: EAC3, 2 ch, 224 Кбит/сек | Английский, оригинал
Общее
Уникальный идентификатор : 237033904721690792645276086251022266546 (0xB25311CA596430508B676F1A5F8130B2)
Полное имя : Дантист.на.диком.западе.1968.WEB-DL.1080p.mkv
Формат : Matroska
Версия формата : Version 2
Размер файла : 9,46 Гбайт
Продолжительность : 1 ч. 40 м.
Режим общего битрейта : Переменный
Общий поток : 13,5 Мбит/сек
Дата кодирования : UTC 2018-04-10 09:55:27
Программа кодирования : mkvmerge v5.8.0 ('No Sleep / Pillow') built on Sep 2 2012 15:37:04
Библиотека кодирования : libebml v1.2.3 + libmatroska v1.3.0

Видео
Идентификатор : 1
Формат : AVC
Формат/Информация : Advanced Video Codec
Профиль формата : High@L4
Настройки формата : CABAC / 4 Ref Frames
Параметр CABAC формата : Да
Параметр RefFrames формата : 4 кадра
Идентификатор кодека : V_MPEG4/ISO/AVC
Продолжительность : 1 ч. 40 м.
Вид битрейта : Переменный
Битрейт : 12,8 Мбит/сек
Максимальный битрейт : 15,0 Мбит/сек
Ширина : 1920 пикселей
Высота : 816 пикселей
Соотношение сторон : 2,35:1
Режим частоты кадров : Постоянный
Частота кадров : 23,976 (24000/1001) кадра/сек
Цветовое пространство : YUV
Субдискретизация насыщенности : 4:2:0
Битовая глубина : 8 бит
Тип развёртки : Прогрессивная
Бит/(Пиксели*Кадры) : 0.340
Размер потока : 8,98 Гбайт (95%)
Язык : English
Default : Да
Forced : Нет
Цветовой диапазон : Limited
Основные цвета : BT.709
Характеристики трансфера : BT.709
Коэффициенты матрицы : BT.709

Аудио #1
Идентификатор : 2
Формат : AC-3
Формат/Информация : Audio Coding 3
Идентификатор кодека : A_AC3
Продолжительность : 1 ч. 40 м.
Вид битрейта : Постоянный
Битрейт : 192 Кбит/сек
Каналы : 2 канала
Расположение каналов : Front: L R
Частота : 48,0 КГц
Частота кадров : 31,250 кадров/сек (1536 SPF)
Битовая глубина : 16 бит
Метод сжатия : С потерями
Размер потока : 138 Мбайт (1%)
Заголовок : MVO | СТС
Язык : Russian
По умолчанию : Да
Принудительно : Нет

Аудио #2
Идентификатор : 3
Формат : E-AC-3
Формат/Информация : Enhanced Audio Coding 3
Идентификатор кодека : A_EAC3
Продолжительность : 1 ч. 40 м.
Вид битрейта : Постоянный
Битрейт : 224 Кбит/сек
Каналы : 2 канала
Расположение каналов : Front: L R
Частота : 48,0 КГц
Частота кадров : 187,500 кадров/сек (256 SPF)
Метод сжатия : С потерями
Задержка видео : 15 мс.
Размер потока : 161 Мбайт (2%)
Заголовок : Original
Язык : English
По умолчанию : Нет
Принудительно : Нет

Текст #1
Идентификатор : 4
Формат : UTF-8
Идентификатор кодека : S_TEXT/UTF8
Идентификатор кодека/Информация : UTF-8 Plain Text
Язык : English
По умолчанию : Нет
Принудительно : Нет

Текст #2
Идентификатор : 5
Формат : UTF-8
Идентификатор кодека : S_TEXT/UTF8
Идентификатор кодека/Информация : UTF-8 Plain Text
Заголовок : SDH
Язык : English
По умолчанию : Нет
Принудительно : Нет

Меню
00:00:00.000 : en:Chapter 1
00:07:39.416 : en:Chapter 2
00:14:15.250 : en:Chapter 3
00:18:21.617 : en:Chapter 4
00:23:49.084 : en:Chapter 5
00:29:48.117 : en:Chapter 6
00:36:56.584 : en:Chapter 7
00:43:32.784 : en:Chapter 8
00:51:43.084 : en:Chapter 9
00:56:20.284 : en:Chapter 10
00:59:39.851 : en:Chapter 11
01:05:34.618 : en:Chapter 12
01:09:23.285 : en:Chapter 13
01:17:37.785 : en:Chapter 14
01:23:35.885 : en:Chapter 15
01:27:37.319 : en:Chapter 16
01:33:21.187 : en:Chapter 17
01:39:49.487 : en:Chapter 18
01:40:31.987 : en:Chapter 19
• Исходник видео WEB-DL Amazon.
pb.wtf



Скачать Дантист на диком западе через торрент https://c.radikal.ru/c42/1907/6e/d6ad7151718c.png Скачать фильм Дантист на диком западе через торрент бесплантно в хорошем качестве Описание: Джесс Хэйвуд, выпускник медицинского колледжа в Филадельфии, в 1870году отправляется на Дикий Запад, где собирается бороться со ... 5 10 1
Info! Золотая раздача, скачанное не засчитывается.
Торрент: Зарегистрирован [2019-07-15 16:00] · скачан: 2 раз
Статус: √ проверено
Размер: 9.46 GB
Как cкачать? Как скачать Дантист на диком западе через торрент | qTorrent

28-11-2019 20:33  

Отключить всю рекламу на сайте

15-07-2019 16:58 Дантист на диком западе Скачать торрент  

Топик был перенесен из форума Классика зарубежного кино в форум Фильмы (WEB-DL 720p, 1080p)


bober100pb.wtf



    Дорогой пользователь! Огромная просьба, поблагодарите релизера, оцените раздачу и оставьте свои комментарий, если Вы скачали Дантист на диком западе через торрент бесплатно! Внесите свою лепту в развитие PiratBit!
    Комментировать посты могут только пользователи прошедшие не сложную регистрацию
    Показать сообщения:    

    Дантист на диком западе через торрент
    Скачать бесплатно Дантист на диком западе
    Дантист на диком западе скачать торрент
    Дантист на диком западе смотреть онлайн
    Cкачать фильм Дантист на диком западе бесплатно
    Дантист на диком западе скачать торрент в хорошем качестве
    Дантист на диком западе смотреть онлайн бесплатно в хорошем качестве


    Вы не можете начинать темы
    Вы не можете отвечать на сообщения
    Вы не можете редактировать свои сообщения
    Вы не можете удалять свои сообщения
    Вы не можете голосовать в опросах
    Вы не можете прикреплять файлы к сообщениям
    Вы можете скачивать файлы