2 сезон

iTunes

MVO

1

2 сезон

iTunes

iTunes

1 сезон

RePack

30

Новинка

ВАЖНО

ИГРА 18+

pack

RePack

MK11
pack

Легкие деньги

RePack

jed

RePack

fifa19

RePack

RDR2

RePack

NEED FOR SPEED™ PAYBACK

4 сезон

9 сезон

Бесстыжие 9 сезон

Все сериалы

все сериалы на PB.wtf

RePack

FAR CRY 5

Anonymous, добрый день, мы не успеваем собрать деньги на оплату серверов за декабрь и январь, помогите нам пожалуйста в это трудное время. В качестве благодарности мы отключим Вам всю рекламу на сайте (укажите свой ник в строку Ваше имя)!

×
  
Magnet ссылка

BBC: Планеты / The Planets / Сезон: 1 / Серии: 1-5 из 5 (Мартин Джонсон, Стивен Кутер, Ник Стэйси) [2019, Документальный, космос, BD Remux 1080i] DVO [SDI Media] pb.wtf

BBC: Планеты через торрент pb.wtf

Размер: 64.42 GB | Добавлен: 1 год 6 мес. назад | Торрент скачан:50 раз
Скачать  

15-07-2019 16:36 BBC: Планеты Скачать торрент  

BBC: Планеты / The Planets
Год выпуска: 2019
Страна: Великобритания, США, Китай
Жанр: Документальный, космос
Продолжительность: ~ 00:58:00
Перевод: Профессиональный (двухголосый) | SDI Media
Субтитры: английские

Режиссер: Мартин Джонсон, Стивен Кутер, Ник Стэйси

В ролях: Брайан Кокс

Описание: Сияние звезд озаряет ночное небо. Только в нашей галактике их сотни миллиардов. Многие из них гораздо больше и ярче нашего Солнца. В масштабе галактик и звезд пленеты нашей солнечной системы по сути не более, чем песчинки, на мгновение попавшие на свет. Но на этих песчинках за более чем 4 миллиарда лет происходили грандиозные истории. Истории рождения планет и их гибели. Планет, созданных средь безмятежностей и хаоса. Их судьбы переплетены сильнее, чем мы могли бы представить...

Качество: BD Remux 1080i
Формат: MKV

Видео: 1920x1080 (16:9), 25 fps, AVC (Н.264), High@L4.1 ~29.8 Mbps avg
Аудио#1: Русский 48.0 KHz, AC3 6 ch (Front: L C R, Side: L R, LFE) ch, ~384.00 kbps avg
Аудио#2: Английский 48 kHz, 24 bit, DTS-HD MA, 2/0 (L,R) ch, ~1704.00 kbps avg / Core 1509.00 kbps avg
01. Мгновение в лучах Солнца - планеты земного типа / A Moment in the Sun - The Terrestrial Planets
Каменистые планеты Меркурий, Венера, Земля и Марс родились в одно и то же время из одного и того же материала, но жили радикально разными жизнями. Какие огромные силы в игре?
02. Две сестры - Земля и Марс / The Two Sisters - Earth & Mars
Профессор Брайан Кокс продолжает свое путешествие по солнечной системе, показывая, что когда-то здесь была не одна, а две голубые планеты.
03. Крестный отец - Юпитер / The Godfather: Jupiter
Брайан Кокс продолжает свое исследование Солнечной системы, посещая планету, которая затмевает все остальные: Юпитер. Его размер дает ему большую силу, которую он использовал для манипулирования другими планетами.
04. Вдали от Солнца - Сатурн / Life Beyond the Sun: Saturn
Профессор Брайан Кокс раскрывает историю Сатурна. Сатурн начал свою жизнь как странная планета из камня и льда и со временем превратился в газового гиганта, без кольца и похожего на своего конкурента Юпитера.
05. Путь во тьму - внешняя часть солнечной системы / Into The Darkness: The outer Solar System

скриншот  скриншот  скриншот  скриншот  

скриншот  скриншот  скриншот  

Общее
Полное имя : S01E01.A.Moment.in.the.Sun.The.Terrestrial.Planets.1080i.Rus.Eng-BLUEBIRD.mkv
Формат : Matroska
Версия формата : Version 4 / Version 2
Размер файла : 12,9 Гбайт
Продолжительность : 58 м. 11 с.
Режим общего битрейта : Переменный
Общий поток : 31,7 Мбит/сек
Дата кодирования : UTC 2019-07-12 09:37:31
Программа кодирования : mkvmerge v8.0.0 ('Til The Day That I Die') 32bit
Библиотека кодирования : libebml v1.3.1 + libmatroska v1.4.2

Видео
Идентификатор : 1
Формат : AVC
Формат/Информация : Advanced Video Codec
Профиль формата : High@L4.1
Настройки формата : CABAC / 4 Ref Frames
Параметр CABAC формата : Да
Параметр RefFrames формата : 4 кадра
Идентификатор кодека : V_MPEG4/ISO/AVC
Продолжительность : 58 м. 11 с.
Вид битрейта : Переменный
Битрейт : 29,8 Мбит/сек
Максимальный битрейт : 33,0 Мбит/сек
Ширина : 1920 пикселей
Высота : 1080 пикселей
Соотношение сторон : 16:9
Режим частоты кадров : Постоянный
Частота кадров : 25,000 кадров/сек
Цветовое пространство : YUV
Субдискретизация насыщенности : 4:2:0
Битовая глубина : 8 бит
Тип развёртки : MBAFF
Метод сохранения типа развёртки : Чередующиеся поля
Порядок развёртки : Верхнее поле первое
Бит/(Пиксели*Кадры) : 0.575
Размер потока : 12,1 Гбайт (94%)
Заголовок : MPEG-4 AVC Video / 29.8 Mbps / 1080i / 25 fps / 16:9 / High Profile 4.1
Язык : English
Default : Да
Forced : Нет

Аудио #1
Идентификатор : 2
Формат : AC-3
Формат/Информация : Audio Coding 3
Идентификатор кодека : A_AC3
Продолжительность : 58 м. 11 с.
Вид битрейта : Постоянный
Битрейт : 192 Кбит/сек
Каналы : 2 канала
Расположение каналов : Front: L R
Частота : 48,0 КГц
Частота кадров : 31,250 кадров/сек (1536 SPF)
Битовая глубина : 16 бит
Метод сжатия : С потерями
Размер потока : 79,9 Мбайт (1%)
Заголовок : rus / AC3 / 2.0 / 48 kHz / 192 kbps / 16-bit
Язык : Russian
ServiceKind/String : Complete Main
Default : Да
Forced : Да

Аудио #2
Идентификатор : 3
Формат : DTS
Формат/Информация : Digital Theater Systems
Профиль формата : MA / Core
Идентификатор кодека : A_DTS
Продолжительность : 58 м. 11 с.
Вид битрейта : Переменный / Постоянный
Битрейт : 1704 Кбит/сек / 1509 Кбит/сек
Каналы : 2 канала
Расположение каналов : Front: L R
Частота : 48,0 КГц
Частота кадров : 93,750 кадра/сек (512 SPF)
Битовая глубина : 16 бит
Метод сжатия : Без потерь / Lossy
Размер потока : 709 Мбайт (5%)
Заголовок : eng / DTS-HD MA / 2.0 / 48 kHz / 1704 kbps / 16-bit / core 1509 kbps
Язык : English
Default : Нет
Forced : Нет

Текст
Идентификатор : 4
Формат : UTF-8
Идентификатор кодека : S_TEXT/UTF8
Идентификатор кодека/Информация : UTF-8 Plain Text
Продолжительность : 57 м. 12 с.
Битрейт : 62 бит/сек
ElementCount : 566
Размер потока : 26,1 Кбайт (0%)
Заголовок : eng / SRT
Язык : English
Default : Да
Forced : Нет

Меню
00:00:00.000 : en:Chapter 01
00:08:39.760 : en:Chapter 02
00:21:09.400 : en:Chapter 03
00:32:54.360 : en:Chapter 04
00:42:03.360 : en:Chapter 05
00:53:02.800 : en:Chapter 06

pb.wtf



Скачать BBC: Планеты через торрент https://i110.fastpic.ru/big/2019/0715/0e/2a8ff937f1f0dc2d88ff213885f4e80e.jpg Скачать фильм BBC: Планеты через торрент бесплантно в хорошем качестве Описание: Сияние звезд озаряет ночное небо. Только в нашей галактике их сотни миллиардов. Многие из них гораздо больше и ярче нашего ... 10 10 4
Info! Золотая раздача, скачанное не засчитывается.
Торрент: Зарегистрирован [2019-07-15 16:36] · скачан: 50 раз
Статус: √ проверено
Размер: 64.42 GB
Как cкачать? Как скачать BBC: Планеты через торрент | UTorrent

% Раздел Тема Автор DL S | L
BBC [ 9.33 GB ] BBC: Планеты / The Planets / Сезон: 1 / Серии: 1-5 из 5 [2019 Документальный космос HDTVRip 720p] DVO [SDI Media] bober100 Скачать
55 | 10

28-11-2019 20:33  

Отключить всю рекламу на сайте

    Дорогой пользователь! Огромная просьба, поблагодарите релизера, оцените раздачу и оставьте свои комментарий, если Вы скачали BBC: Планеты через торрент бесплатно! Внесите свою лепту в развитие PiratBit!
    Комментировать посты могут только пользователи прошедшие не сложную регистрацию
    Показать сообщения:    

    BBC: Планеты через торрент
    Скачать бесплатно BBC: Планеты
    BBC: Планеты скачать торрент
    BBC: Планеты смотреть онлайн
    Cкачать фильм BBC: Планеты бесплатно
    BBC: Планеты скачать торрент в хорошем качестве
    BBC: Планеты смотреть онлайн бесплатно в хорошем качестве


    Вы не можете начинать темы
    Вы не можете отвечать на сообщения
    Вы не можете редактировать свои сообщения
    Вы не можете удалять свои сообщения
    Вы не можете голосовать в опросах
    Вы не можете прикреплять файлы к сообщениям
    Вы можете скачивать файлы