Ссылка на приватное зеркало всего за 1$. Внимание количество ограничено!!!

OK

1+1

iTunes

мы

OK

1

WEB-DLRip

Джокер

Пифагор

Ведьмак / The Witcher сериал

Лицензия

ПШазам

ОК

Оно 2

iTunes

30
pack

Вам бонус

ВАЖНО

!!Акция!!

Alien_RageХит недели

RePack

Resident Evil 21

ИГРА 18+

pack

RePack

jed

!!Акция!!

Alien_Rage

RePack

fifa19

RePack

Assassins Creed: Odyssey

RePack

NEED FOR SPEED™ PAYBACK

4 сезон

9 сезон

Бесстыжие 9 сезон

Все сериалы

все сериалы на PB.wtf

RePack

FAR CRY 5
  

Амундсен / Amundsen (Эспен Сандберг) [2019, Приключения, биография, драма, история, BD Remux 1080p] DUB [iTunes] pb.wtf

Амундсен через торрент pb.wtf

Размер: 29.29 GB | Добавлен: 6 мес. назад | Торрент скачан:21 раз
Скачать  

15-07-2019 17:51 Амундсен Скачать торрент  

Амундсен / Amundsen
Год выпуска: 2019
Страна: Норвегия
Жанр: Приключения, биография, драма, история
Продолжительность: 02:06:17
Перевод: Дублированный | iTunes
Субтитры: отсутствуют

Режиссер: Эспен Сандберг

rating

В ролях: Кэтрин Уотерстон, Пол Сверре Валхейм, Хаген, Йонас Страндт Гравли, Кристиан Рубек, Фритьоф Сохэйм, Мадс Сьёгард Петтерсен, Оле Кристоффер Эртвог, Тронд Эспен Сейм, Ида Урсин-Хольм, Тед Отис

Описание: Молодой норвежский путешественник грезит об открытии неизведанных полярных земель. В погоне за мечтой и грандиозными свершениями герой жертвует всем: семейными узами, дружбой, любовью всей жизни. Получая взамен ледяные пустыни, бездонные трещины, нечеловеческий холод, метели и вечную мерзлоту.

Качество: BD Remux 1080p
Формат: MKV

Видео: MPEG-4 AVC, 1920x1080, 30.0 Mbit/s, 24 fps
Аудио#1: 48 kHz, AC3, 5.1, 384 Kbps | iTunes | RUS |скриншот  
Аудио#2: 48 kHz, TrueHD, 7.1, 3775 Kbps | Оригинал | NOR |
Аудио#3: 48 kHz, AC3, 5.1, 640 Kbps | Оригинал | NOR |
скриншот  скриншот  скриншот  скриншот  скриншот  

General
Unique ID : 214417778488113483721922613823607397564 (0xA14F5CAD56791C96FD776A3EAE7FDCBC)
Complete name : D:Video111Amundsen.2019.BDREMUX.1080p.seleZen.mkv
Format : Matroska
Format version : Version 4
File size : 29.3 GiB
Duration : 2 h 6 min
Overall bit rate mode : Variable
Overall bit rate : 33.2 Mb/s
Movie name : Amundsen 2019 from селезень
Encoded date : UTC 2019-07-15 17:26:13
Writing application : mkvmerge v22.0.0 ('At The End Of The World') 64-bit
Writing library : libebml v1.3.5 + libmatroska v1.4.8

Video
ID : 1
Format : AVC
Format/Info : Advanced Video Codec
Format profile : High@L4.1
Format settings : CABAC / 4 Ref Frames
Format settings, CABAC : Yes
Format settings, Reference : 4 frames
Codec ID : V_MPEG4/ISO/AVC
Duration : 2 h 4 min
Bit rate mode : Constant
Bit rate : 30.0 Mb/s
Width : 1 920 pixels
Height : 1 080 pixels
Display aspect ratio : 16:9
Frame rate mode : Constant
Frame rate : 24.000 FPS
Standard : NTSC
Color space : YUV
Chroma subsampling : 4:2:0
Bit depth : 8 bits
Scan type : Progressive
Bits/(Pixel*Frame) : 0.603
Stream size : 25.0 GiB (85%)
Language : Norwegian
Default : Yes
Forced : No
Color range : Limited
Color primaries : BT.709
Transfer characteristics : BT.709
Matrix coefficients : BT.709

Audio #1
ID : 2
Format : AC-3
Format/Info : Audio Coding 3
Commercial name : Dolby Digital
Codec ID : A_AC3
Duration : 2 h 4 min
Bit rate mode : Constant
Bit rate : 384 kb/s
Channel(s) : 6 channels
Channel layout : L R C LFE Ls Rs
Sampling rate : 48.0 kHz
Frame rate : 31.250 FPS (1536 SPF)
Bit depth : 16 bits
Compression mode : Lossy
Stream size : 343 MiB (1%)
Title : iTunes
Language : Russian
Service kind : Complete Main
Default : Yes
Forced : Yes

Audio #2
ID : 3
Format : MLP FBA 16-ch
Format/Info : Meridian Lossless Packing FBA with 16-channel presentation
Commercial name : Dolby TrueHD with Dolby Atmos
Codec ID : A_TRUEHD
Duration : 2 h 6 min
Bit rate mode : Variable
Bit rate : 3 775 kb/s
Maximum bit rate : 8 469 kb/s
Channel(s) : 8 channels
Channel layout : L R C LFE Ls Rs Lb Rb
Sampling rate : 48.0 kHz
Frame rate : 1 200.000 FPS (40 SPF)
Compression mode : Lossless
Stream size : 3.33 GiB (11%)
Title : Original
Language : Norwegian
Default : No
Forced : No
Number of dynamic objects : 11
Bed channel count : 1 channel
Bed channel configuration : LFE

Audio #3
ID : 4
Format : AC-3
Format/Info : Audio Coding 3
Commercial name : Dolby Digital
Codec ID : A_AC3
Duration : 2 h 6 min
Bit rate mode : Constant
Bit rate : 640 kb/s
Channel(s) : 6 channels
Channel layout : L R C LFE Ls Rs
Sampling rate : 48.0 kHz
Frame rate : 31.250 FPS (1536 SPF)
Bit depth : 16 bits
Compression mode : Lossy
Stream size : 578 MiB (2%)
Language : Norwegian
Service kind : Complete Main
Default : No
Forced : No

Menu
00:00:00.000 : no:00:00:00.000
00:15:03.750 : no:00:15:03.750
00:30:22.458 : no:00:30:22.458
00:44:44.042 : no:00:44:44.042
01:00:35.875 : no:01:00:35.875
01:15:58.500 : no:01:15:58.500
01:29:39.208 : no:01:29:39.208
01:44:13.917 : no:01:44:13.917

pb.wtf



Скачать Амундсен через торрент http://img14.lostpic.net/2019/05/16/16495113508500de2bf30dfbc4aaf78e.jpg Скачать фильм Амундсен через торрент бесплантно в хорошем качестве Описание: Молодой норвежский путешественник грезит об открытии неизведанных полярных земель. В погоне за мечтой и грандиозными свершениями ... 10 10 3
Торрент: Зарегистрирован [2019-07-15 17:51] · скачан: 21 раз
Статус: √ проверено
Размер: 29.29 GB
Как cкачать? Как скачать Амундсен через торрент | qTorrent

% Раздел Тема Автор DL S | L
Фильмы 2019-2020 [DVDrip, WEB-DLRip, HDrip] (DUB, MVO) [ 1.9 GB ] Амундсен / Amundsen [2019 биография история BDRip-AVC] bober100 Скачать
3 | 0
Фильмы 2019-2020 [DVDrip, WEB-DLRip, HDrip] (DUB, MVO) [ 2.13 GB ] Амундсен / Amundsen [2019 биография история BDRip] - Twi7ter Скачать
17 | 1
Фильмы 2019-2020 [DVDrip, WEB-DLRip, HDrip] (DUB, MVO) [ 1.46 GB ] Амундсен / Amundsen [2019 биография история BDRip] - Twi7ter Скачать
25 | 0
Фильмы 2019-2020 [DVDrip, WEB-DLRip, HDrip] (DUB, MVO) [ 2.13 GB ] Амундсен / Amundsen [2019 биография история BDRip] bober100 Скачать
4 | 0
Фильмы [HD 720p, 1080p] (Хороший звук DUB, MVO) [ 10.49 GB ] Амундсен / Amundsen [2019 биография история BDRip 1080p] bober100 Скачать
1 | 0
Фильмы 2019-2020 [DVDrip, WEB-DLRip, HDrip] (DUB, MVO) [ 1.46 GB ] Амундсен / Amundsen [2019 биография история BDRip] bober100 Скачать
2 | 0
Фильмы (WEB-DL 720p, 1080p) [ 4.36 GB ] Амундсен / Amundsen [2019 биография история WEB-DL 1080p ] oleg8 Скачать
1 | 0

28-11-2019 20:33  

Отключить всю рекламу на сайте


    Дорогой пользователь! Огромная просьба, поблагодарите релизера, оцените раздачу и оставьте свои комментарий, если Вы скачали Амундсен через торрент бесплатно! Внесите свою лепту в развитие PiratBit!
    Комментировать посты могут только пользователи прошедшие не сложную регистрацию
    Показать сообщения:    

    Амундсен через торрент
    Скачать бесплатно Амундсен
    Амундсен скачать торрент
    Амундсен смотреть онлайн
    Cкачать фильм Амундсен бесплатно
    Амундсен скачать торрент в хорошем качестве
    Амундсен смотреть онлайн бесплатно в хорошем качестве


    Вы не можете начинать темы
    Вы не можете отвечать на сообщения
    Вы не можете редактировать свои сообщения
    Вы не можете удалять свои сообщения
    Вы не можете голосовать в опросах
    Вы не можете прикреплять файлы к сообщениям
    Вы можете скачивать файлы