Ссылка на приватное зеркало нашего сайта всего за 1$. Внимание количество ограничено!!!

2 сезон

iTunes

1 сезон

1

2 сезон

2 сезон

iTunes

1 сезон

RePack

30

Новинка

ВАЖНО

ИГРА 18+

pack

RePack

MK11
pack

Забери бонус

RePack

jed

!!Акция!!

Alien_Rage

RePack

fifa19

RePack

Assassins Creed: Odyssey

RePack

NEED FOR SPEED™ PAYBACK

4 сезон

9 сезон

Бесстыжие 9 сезон

Все сериалы

все сериалы на PB.wtf

RePack

FAR CRY 5
  

Гнев земли / Something Beneath (Дэвид Уиннинг / David Winning) [2007, фантастика, WEB-DLRip 720p от KORSAR] [MVO] pb.wtf

Гнев земли через торрент pb.wtf

Размер: 4.15 GB | Добавлен: 1 год 4 мес. назад | Торрент скачан:21 раз
Скачать  

15-07-2019 18:17 Гнев земли Скачать торрент  

Гнев земли
Something Beneath

Страна: Канада
Жанр: фантастика
Год выпуска: 2007
Продолжительность: 01:30:05
Режиссер: Дэвид Уиннинг / David Winning

В ролях: Кевин Сорбо, Натали Браун, Бриттани Скоуби, Питер МакНейл, Брендан Бейзер, Фрэнк Эдамсон, Гордон Тэннер, Бретт Донахью, Джин Пирц, Дэвид Стюарт Эванс, Кайл Нобесс, Карл ТордарсонОписание: Во время строительства фешенебельного отеля в отдаленном живописном месте ученый-эколог пытается предотвратить трагедию, убеждая владельца строительной компании остановить работы. Несмотря на предупреждение, отель все-таки достроен и уже готов к приему гостей на самом высоком уровне. На проходящую здесь конференцию съезжаются знаменитые и именитые гости. Супер-отель радует комфортом и высшей степенью современности. Но, природа не прощает ошибок и небрежности. Начинают происходить загадочные, жуткие, леденящие кровь события — исчезают и гибнут люди — гости и служащие отеля, выплывают наружу самые затаенные страхи, несущие в себе реальную угрозу. И спасения от них нет…

Релиз от:

Перевод: Профессиональный многоголосый
Субтитры: Английские

Качество: WEB-DLRip 720p
Формат: MKV

Видео: MPEG-4 AVC, 5513 Кбит/сек, 1280x720, 23,976 кадра/сек
Аудио #1: AC3, 6 ch, 448 Кбит/сек | Русский, профессиональный (многоголосый закадровый)
Аудио #2: EAC3, 6 ch, 640 Кбит/сек | Английский, оригинал
x264 [info]: frame I:851 Avg QP:13.15 size:121009
x264 [info]: frame P:33720 Avg QP:15.58 size: 51901
x264 [info]: frame B:95030 Avg QP:17.30 size: 19690
----------------------------------------------------
Общее
Уникальный идентификатор : 179153817883919123047015863543353112090 (0x86C7C52F3201C8D5988749BE23ACF61A)
Полное имя : Гнев.земли.2007.WEB-DLRip.720p.KORSAR.mkv
Формат : Matroska
Версия формата : Version 2
Размер файла : 4,15 Гбайт
Продолжительность : 1 ч. 30 м.
Общий поток : 6602 Кбит/сек
Дата кодирования : UTC 2017-12-13 22:37:52
Программа кодирования : mkvmerge v5.8.0 ('No Sleep / Pillow') built on Sep 2 2012 15:37:04
Библиотека кодирования : libebml v1.2.3 + libmatroska v1.3.0

Видео
Идентификатор : 1
Формат : AVC
Формат/Информация : Advanced Video Codec
Профиль формата : High@L4.1
Параметр CABAC формата : Да
Параметр ReFrames формата : 9 кадров
Идентификатор кодека : V_MPEG4/ISO/AVC
Продолжительность : 1 ч. 30 м.
Битрейт : 5513 Кбит/сек
Ширина : 1280 пикселей
Высота : 720 пикселей
Соотношение сторон : 16:9
Режим частоты кадров : Постоянный
Частота кадров : 23,976 (24000/1001) кадра/сек
Цветовое пространство : YUV
Субдискретизация насыщенности : 4:2:0
Битовая глубина : 8 бит
Тип развёртки : Прогрессивная
Бит/(Пиксели*Кадры) : 0.249
Размер потока : 3,39 Гбайт (82%)
Заголовок : RIP | MZMA
Библиотека кодирования : x264 core 152 r2851kMod ba24899
Настройки программы : cabac=1 / ref=9 / deblock=1:-3:-2 / analyse=0x3:0x113 / me=umh / subme=11 / psy=1 / fade_compensate=0.00 / psy_rd=1.00:0.00 / mixed_ref=1 / me_range=48 / chroma_me=1 / trellis=2 / 8x8dct=1 / cqm=0 / deadzone=21,11 / fast_pskip=0 / chroma_qp_offset=-2 / threads=6 / lookahead_threads=1 / sliced_threads=0 / nr=0 / decimate=0 / interlaced=0 / bluray_compat=0 / constrained_intra=0 / bframes=16 / b_pyramid=2 / b_adapt=2 / b_bias=0 / direct=3 / weightb=1 / open_gop=0 / weightp=2 / keyint=240 / keyint_min=23 / scenecut=40 / intra_refresh=0 / rc_lookahead=40 / rc=2pass / mbtree=0 / bitrate=5513 / ratetol=1.0 / qcomp=0.60 / qpmin=0 / qpmax=69 / qpstep=4 / cplxblur=20.0 / qblur=0.5 / vbv_maxrate=50000 / vbv_bufsize=62500 / nal_hrd=none / filler=0 / ip_ratio=1.40 / pb_ratio=1.30 / aq=3:0.90
Язык : English
Default : Да
Forced : Нет
Цветовой диапазон : Limited
Основные цвета : BT.709
Характеристики трансфера : BT.709
Коэффициенты матрицы : BT.709

Аудио #1
Идентификатор : 2
Формат : AC-3
Формат/Информация : Audio Coding 3
Параметр Endianness формата : Big
Идентификатор кодека : A_AC3
Продолжительность : 1 ч. 30 м.
Вид битрейта : Постоянный
Битрейт : 448 Кбит/сек
Каналы : 6 каналов
Расположение каналов : Front: L C R, Side: L R, LFE
Частота : 48,0 КГц
Частота кадров : 31,250 кадров/сек (1536 spf)
Битовая глубина : 16 бит
Метод сжатия : С потерями
Размер потока : 289 Мбайт (7%)
Заголовок : MVO
Язык : Russian
ServiceKind/String : Complete Main
Default : Да
Forced : Нет

Аудио #2
Идентификатор : 3
Формат : E-AC-3
Формат/Информация : Enhanced Audio Coding 3
Параметр Endianness формата : Big
Идентификатор кодека : A_EAC3
Продолжительность : 1 ч. 30 м.
Вид битрейта : Постоянный
Битрейт : 640 Кбит/сек
Каналы : 6 каналов
Расположение каналов : Front: L C R, Side: L R, LFE
Частота : 48,0 КГц
Частота кадров : 187,500 кадров/сек (256 spf)
Метод сжатия : С потерями
Задержка видео : 16 мс.
Размер потока : 412 Мбайт (10%)
Заголовок : Original
Язык : English
ServiceKind/String : Complete Main
Default : Нет
Forced : Нет

Текст
Идентификатор : 4
Формат : UTF-8
Идентификатор кодека : S_TEXT/UTF8
Идентификатор кодека/Информация : UTF-8 Plain Text
Язык : English
Default : Нет
Forced : Нет
pb.wtf



Скачать Гнев земли через торрент http://i97.fastpic.ru/big/2018/1112/d7/958e96ad7fe36d0f31e9d6a2281edbd7.png Скачать фильм Гнев земли через торрент бесплантно в хорошем качестве Описание: Во время строительства фешенебельного отеля в отдаленном живописном месте ученый-эколог пытается предотвратить трагедию, убеждая ... 10 10 2
Info! Золотая раздача, скачанное не засчитывается.
Торрент: Зарегистрирован [2019-07-15 18:17] · скачан: 21 раз
Статус: √ проверено
Размер: 4.15 GB
Как cкачать? Как скачать Гнев земли через торрент | qTorrent

% Раздел Тема Автор DL S | L
Фильмы 2006-2008 [ 1.9 GB ] Гнев земли / Something Beneath [2007 WEB-DLRip-AVC] MVO - ExKinoRay Enigma2010 Скачать
1 | 0

28-11-2019 20:33  

Отключить всю рекламу на сайте

    Дорогой пользователь! Огромная просьба, поблагодарите релизера, оцените раздачу и оставьте свои комментарий, если Вы скачали Гнев земли через торрент бесплатно! Внесите свою лепту в развитие PiratBit!
    Комментировать посты могут только пользователи прошедшие не сложную регистрацию
    Показать сообщения:    

    Гнев земли через торрент
    Скачать бесплатно Гнев земли
    Гнев земли скачать торрент
    Гнев земли смотреть онлайн
    Cкачать фильм Гнев земли бесплатно
    Гнев земли скачать торрент в хорошем качестве
    Гнев земли смотреть онлайн бесплатно в хорошем качестве


    Вы не можете начинать темы
    Вы не можете отвечать на сообщения
    Вы не можете редактировать свои сообщения
    Вы не можете удалять свои сообщения
    Вы не можете голосовать в опросах
    Вы не можете прикреплять файлы к сообщениям
    Вы можете скачивать файлы