новый адрес
Ссылка на приватное зеркало всего за 1$. Внимание количество ограничено!!!

iTunes

1+1

iTunes

мы

WEB-DL

1

iTunes

Чернобыль

iTunes

Ральф против интернета

Лицензия

ПШазам

Лицензия

Оно 2

Лицензия

30
pack

Вам бонус

ВАЖНО

!!Акция!!

Alien_RageХит недели

RePack

Resident Evil 21

ИГРА 18+

pack

RePack

jed

!!Акция!!

Alien_Rage

RePack

fifa19

RePack

Assassins Creed: Odyssey

RePack

NEED FOR SPEED™ PAYBACK

3 сезон

9 сезон

Бесстыжие 9 сезон

Все сериалы

все сериалы на PB.wtf

RePack

FAR CRY 5
Ребята, катастрофически не хватает 1900р. для оплаты серверов за Октябрь (всвязи с блокировками трафик упал в 3 раза), 1-2р., выручайте.
  

Мисс Пуля / Miss Bala (Кэтрин Хардвик) [2019, Боевик, триллер, драма, BDRip-AVC] MVO [Лицензия] pb.wtf

Мисс Пуля через торрент pb.wtf

Размер: 2.18 GB | Добавлен: 4 мес. 28 д. назад | Торрент скачан:167 раз
Скачать  

15-07-2019 18:49 Мисс Пуля Скачать торрент  

Мисс Пуля / Miss Bala«Who would you become to save your family?»
Год выпуска: 2019
Страна: Мексика, США
Жанр: Боевик, триллер, драма
Продолжительность: 01:43:58
Перевод: Профессиональный многоголосый | Лицензия BD EUR
Субтитры: Русские (форс., полные), английские (полные)

Режиссер: Кэтрин Хардвик

rating

В ролях: Джина Родригез, Энтони Маки, Исмаэль Круз, Мэтт Лауриа, Томас Деккер, Айслинн Дербес, Кристина Рольдо, Рикардо Абарка, Даниэла де ла Фе, Уилл Блэгроув

Описание: Участница конкурса красоты Глория становится свидетельницей жестокой бандитской расправы и попадает в руки харизматичного наркобарона. С помощью шантажа и угроз он использует отчаянную красавицу как пешку в своей игре против ЦРУ и УБН.

Качество: BDRip-AVC
Формат: MKV

Видео: 1152x480 (2.40:1), 23,976 fps, x264 ~2 549 kbps avg, 0.192 bit/pixel
Аудио: 48 kHz, AC3 Dolby Digital Plus, 3/2 (L,C,R,l,r) + LFE ch, ~448.00 kbps avg | RUS (Лицензия)
скриншот  скриншот  скриншот  скриншот  скриншот  

Общее
Уникальный идентификатор : 130483410332359095649208488897692114313 (0x622A30D30EC8DB6F614DA0CF5F711D89)
Полное имя : F:\OlLanDGroup\Miss.Bala.2019.BDRip(AVC).OllanDGroup.mkv
Формат : Matroska
Версия формата : Version 4 / Version 2
Размер файла : 2,18 Гбайт
Продолжительность : 1 ч. 43 м.
Общий поток : 3000 Кбит/сек
Название фильма : Miss Bala 2019 #TorpedoUK#
Дата кодирования : UTC 2019-07-15 18:13:36
Программа кодирования : mkvmerge v29.0.0 ('Like It Or Not') 64-bit
Библиотека кодирования : libebml v1.3.6 + libmatroska v1.4.9

Видео
Идентификатор : 1
Формат : AVC
Формат/Информация : Advanced Video Codec
Профиль формата : High@L4.1
Параметр CABAC формата : Да
Параметр ReFrames формата : 10 кадров
Идентификатор кодека : V_MPEG4/ISO/AVC
Продолжительность : 1 ч. 43 м.
Битрейт : 2549 Кбит/сек
Ширина : 1152 пикселя
Высота : 480 пикселей
Соотношение сторон : 2,40:1
Режим частоты кадров : Постоянный
Частота кадров : 23,976 (24000/1001) кадра/сек
Цветовое пространство : YUV
Субдискретизация насыщенности : 4:2:0
Битовая глубина : 8 бит
Тип развёртки : Прогрессивная
Бит/(Пиксели*Кадры) : 0.192
Размер потока : 1,85 Гбайт (85%)
Библиотека кодирования : x264 core 146 r2538 121396c
Настройки программы : cabac=1 / ref=10 / deblock=1:-3:-3 / analyse=0x3:0x113 / me=umh / subme=11 / psy=1 / psy_rd=0.99:0.04 / mixed_ref=1 / me_range=48 / chroma_me=1 / trellis=2 / 8x8dct=1 / cqm=0 / deadzone=21,11 / fast_pskip=1 / chroma_qp_offset=-3 / threads=6 / lookahead_threads=1 / sliced_threads=0 / nr=0 / decimate=1 / interlaced=0 / bluray_compat=0 / constrained_intra=0 / bframes=11 / b_pyramid=2 / b_adapt=2 / b_bias=0 / direct=3 / weightb=1 / open_gop=0 / weightp=2 / keyint=240 / keyint_min=23 / scenecut=40 / intra_refresh=0 / rc_lookahead=40 / rc=2pass / mbtree=0 / bitrate=2549 / ratetol=1.0 / qcomp=0.60 / qpmin=0 / qpmax=69 / qpstep=4 / cplxblur=20.0 / qblur=0.5 / vbv_maxrate=50000 / vbv_bufsize=62500 / nal_hrd=none / filler=0 / ip_ratio=1.40 / pb_ratio=1.30 / aq=1:1.00
Default : Да
Forced : Нет

Аудио
Идентификатор : 2
Формат : AC-3
Формат/Информация : Audio Coding 3
Расширение режима : CM (complete main)
Параметр Endianness формата : Big
Идентификатор кодека : A_AC3
Продолжительность : 1 ч. 43 м.
Вид битрейта : Постоянный
Битрейт : 448 Кбит/сек
Каналы : 6 каналов
Расположение каналов : Front: L C R, Side: L R, LFE
Частота : 48,0 КГц
Частота кадров : 31,250 кадров/сек (1536 spf)
Битовая глубина : 16 бит
Метод сжатия : С потерями
Размер потока : 333 Мбайт (15%)
Заголовок : MVO [License]
Язык : Russian
Default : Да
Forced : Нет

Текст #1
Идентификатор : 3
Формат : UTF-8
Идентификатор кодека : S_TEXT/UTF8
Идентификатор кодека/Информация : UTF-8 Plain Text
Продолжительность : 1 ч. 40 м.
Битрейт : 0 бит/сек
Count of elements : 2
Размер потока : 118 байт (0%)
Заголовок : Forced
Язык : Russian
Default : Да
Forced : Нет

Текст #2
Идентификатор : 4
Формат : UTF-8
Идентификатор кодека : S_TEXT/UTF8
Идентификатор кодека/Информация : UTF-8 Plain Text
Продолжительность : 1 ч. 42 м.
Битрейт : 54 бит/сек
Count of elements : 972
Размер потока : 40,6 Кбайт (0%)
Заголовок : Full
Язык : Russian
Default : Нет
Forced : Нет

Текст #3
Идентификатор : 5
Формат : UTF-8
Идентификатор кодека : S_TEXT/UTF8
Идентификатор кодека/Информация : UTF-8 Plain Text
Продолжительность : 1 ч. 36 м.
Битрейт : 35 бит/сек
Count of elements : 951
Размер потока : 24,9 Кбайт (0%)
Заголовок : Full
Язык : English
Default : Нет
Forced : Нет

Меню
00:00:00.000 : en:Chapter 01
00:05:31.706 : en:Chapter 02
00:12:15.777 : en:Chapter 03
00:17:39.600 : en:Chapter 04
00:24:00.439 : en:Chapter 05
00:27:02.621 : en:Chapter 06
00:35:19.034 : en:Chapter 07
00:41:09.801 : en:Chapter 08
00:46:20.236 : en:Chapter 09
00:55:58.021 : en:Chapter 10
00:59:22.768 : en:Chapter 11
01:03:48.950 : en:Chapter 12
01:09:17.945 : en:Chapter 13
01:20:28.741 : en:Chapter 14
01:25:28.373 : en:Chapter 15
01:30:06.610 : en:Chapter 16

pb.wtf



Скачать Мисс Пуля через торрент http://img14.lostpic.net/2019/05/08/df7393069d66bbbd1d682552b36116e4.jpg Скачать фильм Мисс Пуля через торрент бесплантно в хорошем качестве Описание: Участница конкурса красоты Глория становится свидетельницей жестокой бандитской расправы и попадает в руки харизматичного ... 9.6 10 9
Торрент: Зарегистрирован [2019-07-15 18:49] · скачан: 167 раз
Статус: √ проверено
Размер: 2.18 GB
Как cкачать? Как скачать Мисс Пуля через торрент | qTorrent

% Раздел Тема Автор DL S | L
Фильмы (HD 720p, 1080p) (48-60 fps) [ 12.79 GB ] Мисс Пуля / Miss Bala [2019 BDRip 1080p ] MVO [] bober100 Скачать
1 | 0
Фильмы (Blu-ray, BD-Remux, HDDVD) [ 20.17 GB ] Мисс Пуля / Miss Bala [2019 BD Remux 1080p] MVO [] bober100 Скачать
1 | 0
Фильмы 2019 [DVDrip, WEB-DLRip, HDrip] (DUB, MVO) [ 1.46 GB ] Мисс Пуля / Miss Bala [2019 BDRip] MVO [ BD EUR] bober100 Скачать
3 | 0
Фильмы [HD 720p, 1080p] (Хороший звук DUB, MVO) [ 6.08 GB ] Мисс Пуля / Miss Bala [2019 BDRip 720p] MVO [] bober100 Скачать
1 | 0
Фильмы [HD 720p, 1080p] (Хороший звук DUB, MVO) [ 10.38 GB ] Мисс Пуля / Miss Bala [2019 BDRip 1080p] MVO [] bober100 Скачать
1 | 0
Фильмы 2019 [DVDrip, WEB-DLRip, HDrip] (DUB, MVO) [ 1.46 GB ] Мисс Пуля / Miss Bala [2019 BDRip] MVO [] Twi7ter Скачать
5 | 4

28-11-2019 20:33  

Отключить всю рекламу на сайте

    Дорогой пользователь! Огромная просьба, поблагодарите релизера, оцените раздачу и оставьте свои комментарий, если Вы скачали Мисс Пуля через торрент бесплатно! Внесите свою лепту в развитие PiratBit!
    Комментировать посты могут только пользователи прошедшие не сложную регистрацию
    Показать сообщения:    

    Мисс Пуля через торрент
    Скачать бесплатно Мисс Пуля
    Мисс Пуля скачать торрент
    Мисс Пуля смотреть онлайн
    Cкачать фильм Мисс Пуля бесплатно
    Мисс Пуля скачать торрент в хорошем качестве
    Мисс Пуля смотреть онлайн бесплатно в хорошем качестве


    Вы не можете начинать темы
    Вы не можете отвечать на сообщения
    Вы не можете редактировать свои сообщения
    Вы не можете удалять свои сообщения
    Вы не можете голосовать в опросах
    Вы не можете прикреплять файлы к сообщениям
    Вы можете скачивать файлы