новый адрес
Ссылка на приватное зеркало всего за 1$. Внимание количество ограничено!!!

iTunes

1+1

iTunes

мы

WEB-DL

1

iTunes

Чернобыль

iTunes

Ральф против интернета

Лицензия

ПШазам

Лицензия

Оно 2

Лицензия

30
pack

Вам бонус

ВАЖНО

!!Акция!!

Alien_RageХит недели

RePack

Resident Evil 21

ИГРА 18+

pack

RePack

jed

!!Акция!!

Alien_Rage

RePack

fifa19

RePack

Assassins Creed: Odyssey

RePack

NEED FOR SPEED™ PAYBACK

3 сезон

9 сезон

Бесстыжие 9 сезон

Все сериалы

все сериалы на PB.wtf

RePack

FAR CRY 5
Ребята, катастрофически не хватает 1900р. для оплаты серверов за Октябрь (всвязи с блокировками трафик упал в 3 раза), 1-2р., выручайте.
  

Прорыв / Breakthrough (Роксанн Доусон) [2019, Драма, биография, BDRip-AVC] MVO [iTunes] pb.wtf

Прорыв через торрент pb.wtf

Размер: 2.13 GB | Добавлен: 4 мес. 23 д. назад | Торрент скачан:32 раза
Скачать  

15-07-2019 20:11 Прорыв Скачать торрент  

Прорыв / Breakthrough
Год выпуска: 2019
Страна: США
Жанр: Драма, биография
Продолжительность: 01:56:15
Перевод: Профессиональный многоголосый | iTunes
Субтитры: Русские (форс., полные), Английские (полные)

Режиссер: Роксанн Доусон

rating

В ролях: Тофер Грэйс, Крисси Мец, Марсель Руис, Джош Лукас, Дэннис Хэйсбёрт, Майк Колтер, Ребекка Стааб, Сэм Трэммелл, Алиса Сковбай, Лиза Дурупт

Описание: История чудесного спасения 14-летнего Джона, который провалился под лёд озера в Миссури. Когда мальчика доставили в больницу, он более часа не подавал признаков жизни. Его мать Джойс, не смирившись с потерей сына, призвала на помощь всю свою любовь и веру.

Качество: BDRip-AVC
Формат: MKV

Видео: 1024x428 (2.40:1), 23,976 fps, x264 ~1 785 kbps avg, 0.170 bit/pixel
Аудио#1: 48 kHz, AC3 Dolby Digital, 3/2 (L,C,R,l,r) + LFE ch, ~384.00 kbps avg | RUS (iTunes) |
Аудио#2: 48 kHz, AC3 Dolby Digital, 3/2 (L,C,R,l,r) + LFE ch, ~448.00 kbps avg | ENG |
скриншот  скриншот  скриншот  скриншот  скриншот  

Общее
Уникальный идентификатор : 80730095894869851073623423178894613976 (0x3CBC0D086B571BB94EA8AAD941261DD8)
Полное имя : F:OlLanDGroupBreakthrough.2019.BDRip(AVC).OllanDGroup.mkv
Формат : Matroska
Версия формата : Version 4 / Version 2
Размер файла : 2,13 Гбайт
Продолжительность : 1 ч. 56 м.
Общий поток : 2619 Кбит/сек
Название фильма : Breakthrough.2019 #TorpedoUK#
Дата кодирования : UTC 2019-07-15 18:25:56
Программа кодирования : mkvmerge v29.0.0 ('Like It Or Not') 64-bit
Библиотека кодирования : libebml v1.3.6 + libmatroska v1.4.9

Видео
Идентификатор : 1
Формат : AVC
Формат/Информация : Advanced Video Codec
Профиль формата : High@L4.1
Параметр CABAC формата : Да
Параметр ReFrames формата : 10 кадров
Идентификатор кодека : V_MPEG4/ISO/AVC
Продолжительность : 1 ч. 56 м.
Битрейт : 1785 Кбит/сек
Ширина : 1024 пикселя
Высота : 428 пикселей
Соотношение сторон : 2,40:1
Режим частоты кадров : Постоянный
Частота кадров : 23,976 (24000/1001) кадра/сек
Цветовое пространство : YUV
Субдискретизация насыщенности : 4:2:0
Битовая глубина : 8 бит
Тип развёртки : Прогрессивная
Бит/(Пиксели*Кадры) : 0.170
Размер потока : 1,45 Гбайт (68%)
Библиотека кодирования : x264 core 146 r2538 121396c
Настройки программы : cabac=1 / ref=10 / deblock=1:-3:-3 / analyse=0x3:0x113 / me=umh / subme=11 / psy=1 / psy_rd=1.00:0.03 / mixed_ref=1 / me_range=48 / chroma_me=1 / trellis=2 / 8x8dct=1 / cqm=0 / deadzone=21,11 / fast_pskip=1 / chroma_qp_offset=-3 / threads=6 / lookahead_threads=1 / sliced_threads=0 / nr=0 / decimate=1 / interlaced=0 / bluray_compat=0 / constrained_intra=0 / bframes=11 / b_pyramid=2 / b_adapt=2 / b_bias=0 / direct=3 / weightb=1 / open_gop=0 / weightp=2 / keyint=240 / keyint_min=23 / scenecut=40 / intra_refresh=0 / rc_lookahead=40 / rc=2pass / mbtree=0 / bitrate=1785 / ratetol=1.0 / qcomp=0.60 / qpmin=0 / qpmax=69 / qpstep=4 / cplxblur=20.0 / qblur=0.5 / vbv_maxrate=50000 / vbv_bufsize=62500 / nal_hrd=none / filler=0 / ip_ratio=1.40 / pb_ratio=1.30 / aq=1:1.00
Язык : English
Default : Да
Forced : Нет

Аудио #1
Идентификатор : 2
Формат : AC-3
Формат/Информация : Audio Coding 3
Расширение режима : CM (complete main)
Параметр Endianness формата : Big
Идентификатор кодека : A_AC3
Продолжительность : 1 ч. 56 м.
Вид битрейта : Постоянный
Битрейт : 384 Кбит/сек
Каналы : 6 каналов
Расположение каналов : Front: L C R, Side: L R, LFE
Частота : 48,0 КГц
Частота кадров : 31,250 кадров/сек (1536 spf)
Битовая глубина : 16 бит
Метод сжатия : С потерями
Размер потока : 319 Мбайт (15%)
Заголовок : MVO [iTunes]
Язык : Russian
Default : Да
Forced : Нет

Аудио #2
Идентификатор : 3
Формат : AC-3
Формат/Информация : Audio Coding 3
Расширение режима : CM (complete main)
Параметр Endianness формата : Big
Идентификатор кодека : A_AC3
Продолжительность : 1 ч. 56 м.
Вид битрейта : Постоянный
Битрейт : 448 Кбит/сек
Каналы : 6 каналов
Расположение каналов : Front: L C R, Side: L R, LFE
Частота : 48,0 КГц
Частота кадров : 31,250 кадров/сек (1536 spf)
Битовая глубина : 16 бит
Метод сжатия : С потерями
Размер потока : 373 Мбайт (17%)
Заголовок : [Original]
Язык : English
Default : Нет
Forced : Нет

Текст #1
Идентификатор : 4
Формат : UTF-8
Идентификатор кодека : S_TEXT/UTF8
Идентификатор кодека/Информация : UTF-8 Plain Text
Продолжительность : 1 ч. 17 м.
Битрейт : 0 бит/сек
Count of elements : 5
Размер потока : 185 байт (0%)
Заголовок : Forced
Язык : Russian
Default : Да
Forced : Нет

Текст #2
Идентификатор : 5
Формат : UTF-8
Идентификатор кодека : S_TEXT/UTF8
Идентификатор кодека/Информация : UTF-8 Plain Text
Продолжительность : 1 ч. 55 м.
Битрейт : 81 бит/сек
Count of elements : 1613
Размер потока : 68,8 Кбайт (0%)
Заголовок : Full
Язык : Russian
Default : Нет
Forced : Нет

Текст #3
Идентификатор : 6
Формат : UTF-8
Идентификатор кодека : S_TEXT/UTF8
Идентификатор кодека/Информация : UTF-8 Plain Text
Продолжительность : 1 ч. 53 м.
Битрейт : 60 бит/сек
Count of elements : 1656
Размер потока : 50,5 Кбайт (0%)
Заголовок : Full
Язык : English
Default : Нет
Forced : Нет

Меню
00:00:00.000 : en:Chapter 01
00:04:29.519 : en:Chapter 02
00:08:12.534 : en:Chapter 03
00:15:41.440 : en:Chapter 04
00:22:07.368 : en:Chapter 05
00:24:59.915 : en:Chapter 06
00:30:03.635 : en:Chapter 07
00:35:26.416 : en:Chapter 08
00:40:45.401 : en:Chapter 09
00:45:39.362 : en:Chapter 10
00:49:40.978 : en:Chapter 11
00:55:18.357 : en:Chapter 12
00:59:48.627 : en:Chapter 13
01:04:34.746 : en:Chapter 14
01:08:44.287 : en:Chapter 15
01:12:40.106 : en:Chapter 16
01:18:37.046 : en:Chapter 17
01:26:36.316 : en:Chapter 18
01:31:12.926 : en:Chapter 19
01:37:36.934 : en:Chapter 20
01:41:48.644 : en:Chapter 21
01:45:39.291 : en:Chapter 22
01:48:00.849 : en:Chapter 23
01:51:55.918 : en:Chapter 24

pb.wtf



Скачать Прорыв через торрент https://i110.fastpic.ru/big/2019/0710/67/45d58ec079379b8de74b5d80671c9567.jpg Скачать фильм Прорыв через торрент бесплантно в хорошем качестве Описание: История чудесного спасения 14-летнего Джона, который провалился под лёд озера в Миссури. Когда мальчика доставили в больницу, он ... 8 10 3
Торрент: Зарегистрирован [2019-07-15 20:11] · скачан: 32 раз
Статус: √ проверено
Размер: 2.13 GB
Как cкачать? Как скачать Прорыв через торрент | qTorrent

% Раздел Тема Автор DL S | L
Фильмы 2019 [DVDrip, WEB-DLRip, HDrip] (DUB, MVO) [ 1.41 GB ] Прорыв / Breakthrough [2019 биография BDRip] MVO Twi7ter Скачать
35 | 0
Фильмы (Blu-ray, BD-Remux, HDDVD) [ 26.45 GB ] Прорыв / Breakthrough [2019 биография BD Remux 1080p] MVO bober100 Скачать
1 | 0
Ultra HD (UHD: 2K, 4K, 8K) — видео сверхвысокой чёткости [ 49.69 GB ] Прорыв / Breakthrough [2019 биография UHD BDRemux 2160p] MVO sheker187 Скачать
1 | 0
Ultra HD (UHD: 2K, 4K, 8K) — видео сверхвысокой чёткости [ 13.64 GB ] Прорыв / Breakthrough [2019 биография UHD BDRip 2160p] MVO sheker187 Скачать
1 | 0
Фильмы [HD 720p, 1080p] (Хороший звук DUB, MVO) [ 9.2 GB ] Прорыв / Breakthrough [2019 биография BDRip 1080p] MVO bober100 Скачать
1 | 0
Фильмы [HD 720p, 1080p] (Хороший звук DUB, MVO) [ 4.17 GB ] Прорыв / Breakthrough [2019 биография BDRip 720p] MVO bober100 Скачать
2 | 0
Фильмы (WEB-DL 720p, 1080p) [ 4.41 GB ] Прорыв / Breakthrough [2019 биография WEB-DL 1080p] MVO bober100 Скачать
2 | 0

28-11-2019 20:33  

Отключить всю рекламу на сайте

    Дорогой пользователь! Огромная просьба, поблагодарите релизера, оцените раздачу и оставьте свои комментарий, если Вы скачали Прорыв через торрент бесплатно! Внесите свою лепту в развитие PiratBit!
    Комментировать посты могут только пользователи прошедшие не сложную регистрацию
    Показать сообщения:    

    Прорыв через торрент
    Скачать бесплатно Прорыв
    Прорыв скачать торрент
    Прорыв смотреть онлайн
    Cкачать фильм Прорыв бесплатно
    Прорыв скачать торрент в хорошем качестве
    Прорыв смотреть онлайн бесплатно в хорошем качестве


    Вы не можете начинать темы
    Вы не можете отвечать на сообщения
    Вы не можете редактировать свои сообщения
    Вы не можете удалять свои сообщения
    Вы не можете голосовать в опросах
    Вы не можете прикреплять файлы к сообщениям
    Вы можете скачивать файлы