Доктор Стрэндж

Лицензия

Добыча

Дубляж

Дом дракона

1 сезон

Тор

Дубляж

В эфире

Дубляж

Там, где раки поют

MVO

Властелин колец

1 сезон

Deluxe

pack

Рекомендуем

30

Пиратка

ВАЖНО

ВАЖНО

Ghostwire

Пиратка

jed

RePack

nioh2

RePack

RDR2

RePack

NEED FOR SPEED™ PAYBACK

RePack

скачать торрент

Кинопоиск HD

Острые козырьки 6 сезон

6 сезон

FAR CRY 6

RePack

скачать торрент

Лицензия

скачать торрент

MVO

1

1 сезон

скачать торрент

1 сезон

скачать торрент

Лицензия

  

Алита: Боевой ангел 3Д / Alita: Battle Angel 3D (Роберт Родригес) [2019, фантастика, боевик, триллер, мелодрама, приключения, BDRip 1080p] [Half OverUnder / Вертикальная анаморфная стереопара] Дубляж (rus, ukr) [Лицензия]

Алита: Боевой ангел 3Д через торрент pb.wtf

Размер: 12.55 GB | Добавлен: 3 года 4 мес. назад | Торрент скачан:419 раз
Смотреть онлайн | Скачать   

16-07-2019 03:50 Алита: Боевой ангел 3Д Скачать торрент  

Алита: Боевой ангел 3Д
Alita: Battle Angel 3D
«Ангел падёт, и восстанет воин»(Видеоряд англоязычный)
Год выпуска: 2019
Страна: Канада, Аргентина, США
Жанр: фантастика, боевик, триллер, мелодрама, приключения
Продолжительность: 02:01:57
Перевод: Дублированный | Лицензия
Субтитры:
Вшитые (softsub):
#1 - Русские Форсированные (включены по умолчанию)
#2 - Русские Полные
#3 - Украинские Форсированные
#4 - Украинские Полные
#5 - English Full
#6 - English SDH

Внешние (UTF-8):
#1 - Русские Форсированные (включены по умолчанию)
#2 - Русские Полные
#3 - Украинские Форсированные

Режиссер: Роберт Родригес

rating

В ролях:

Роза Салазар (Alita), Кристоф Вальц (Dr. Dyson Ido), Дженнифер Коннелли (Chiren), Махершала Али (Vector), Эд Скрейн (Zapan), Джеки Эрл Хейли (Grewishka), Киан Джонсон (Hugo), Хорхе Лендеборг мл. (Tanji), Лана Кондор (Koyomi), Идара Виктор (Nurse Gerhad), Джефф Фэйи (McTeague), Эйса Гонсалес (Nyssiana)
Описание:

Действие фильма происходит через 300 лет после Великой войны в XXVI веке. Доктор Идо находит останки женщины-киборга. После починки киборг ничего не помнит, но обнаруживает, что в состоянии пользоваться боевыми приемами киборгов. Начинаются поиски утерянных воспоминаний.

Качество: BDRip 1080p
Формат: MKV

Видео: AVC / 1920х1080p / 23,976 fps / 13.0 Mbps
Аудио#1: Русский / AC3 / 48 KHz / 5.1 ch / 640 Kbps (Дубляж - BD CEE)
Аудио#2: Украинский / AC3 / 48 KHz / 5.1 ch / 448 Kbps (Дубляж - BD CEE)
Аудио#3: Английский / AC3 / 48 KHz / 5.1 ch / 640 Kbps (Original - BD 3D)
Формат 3D: Half OverUnder / Вертикальная анаморфная стереопара
Порядок ракурсов: левый ракурс первый
скриншот  скриншот  скриншот  скриншот  скриншот  

General
Unique ID : 198958923750799743171776218400169292537 (0x95AE184B11D5A8758325DF499B6272F9)
Complete name : J:Alita.BattleAngel(2019)3D-hOU(Ash61)Alita.BattleAngel(2019)3D-hOU(Ash61).mkv
Format : Matroska
Format version : Version 2
File size : 12.5 GiB
Duration : 2h 1mn
Overall bit rate : 14.7 Mbps
Movie name : Алита: Боевой ангел / Alita: Battle Angel (2019) in 3D
Encoded date : UTC 2019-07-16 01:40:41
Writing application : mkvmerge v5.8.0 ('No Sleep / Pillow') built on Sep 2 2012 15:37:04
Writing library : libebml v1.2.3 + libmatroska v1.3.0

Video
ID : 1
Format : AVC
Format/Info : Advanced Video Codec
Format profile : [email protected]
Format settings, CABAC : Yes
Format settings, ReFrames : 4 frames
Codec ID : V_MPEG4/ISO/AVC
Duration : 2h 1mn
Bit rate : 13.0 Mbps
Width : 1 920 pixels
Height : 1 080 pixels
Display aspect ratio : 16:9
Frame rate mode : Constant
Frame rate : 23.976 (24000/1001) fps
Color space : YUV
Chroma subsampling : 4:2:0
Bit depth : 8 bits
Scan type : Progressive
Bits/(Pixel*Frame) : 0.261
Stream size : 10.8 GiB (86%)
Title : BDRip by Ash61
Writing library : x264 core 146 r2538 121396c
Encoding settings : cabac=1 / ref=4 / deblock=1:-3:-3 / analyse=0x3:0x113 / me=umh / subme=10 / psy=1 / psy_rd=1.00:0.00 / mixed_ref=1 / me_range=32 / chroma_me=1 / trellis=2 / 8x8dct=1 / cqm=0 / deadzone=21,11 / fast_pskip=0 / chroma_qp_offset=-2 / threads=12 / lookahead_threads=2 / sliced_threads=0 / nr=0 / decimate=0 / interlaced=0 / bluray_compat=0 / constrained_intra=0 / bframes=9 / b_pyramid=2 / b_adapt=2 / b_bias=0 / direct=3 / weightb=1 / open_gop=0 / weightp=2 / keyint=250 / keyint_min=23 / scenecut=40 / intra_refresh=0 / rc_lookahead=60 / rc=2pass / mbtree=0 / bitrate=13000 / ratetol=1.0 / qcomp=0.70 / qpmin=0 / qpmax=69 / qpstep=4 / cplxblur=20.0 / qblur=0.5 / vbv_maxrate=40000 / vbv_bufsize=30000 / nal_hrd=none / filler=0 / frame-packing=4 / ip_ratio=1.40 / pb_ratio=1.30 / aq=1:0.70
Language : English
Default : Yes
Forced : No

Audio #1
ID : 2
Format : AC-3
Format/Info : Audio Coding 3
Mode extension : CM (complete main)
Format settings, Endianness : Big
Codec ID : A_AC3
Duration : 2h 1mn
Bit rate mode : Constant
Bit rate : 640 Kbps
Channel(s) : 6 channels
Channel positions : Front: L C R, Side: L R, LFE
Sampling rate : 48.0 KHz
Frame rate : 31.250 fps (1536 spf)
Compression mode : Lossy
Stream size : 558 MiB (4%)
Title : Дубляж (BD CEE)
Language : Russian
Default : Yes
Forced : No

Audio #2
ID : 3
Format : AC-3
Format/Info : Audio Coding 3
Mode extension : CM (complete main)
Format settings, Endianness : Big
Codec ID : A_AC3
Duration : 2h 1mn
Bit rate mode : Constant
Bit rate : 448 Kbps
Channel(s) : 6 channels
Channel positions : Front: L C R, Side: L R, LFE
Sampling rate : 48.0 KHz
Frame rate : 31.250 fps (1536 spf)
Compression mode : Lossy
Stream size : 391 MiB (3%)
Title : Дубляж (BD CEE)
Language : Ukrainian
Default : No
Forced : No

Audio #3
ID : 4
Format : AC-3
Format/Info : Audio Coding 3
Mode extension : CM (complete main)
Format settings, Endianness : Big
Codec ID : A_AC3
Duration : 2h 1mn
Bit rate mode : Constant
Bit rate : 640 Kbps
Channel(s) : 6 channels
Channel positions : Front: L C R, Side: L R, LFE
Sampling rate : 48.0 KHz
Frame rate : 31.250 fps (1536 spf)
Compression mode : Lossy
Stream size : 558 MiB (4%)
Title : Original (BD 3D)
Language : English
Default : No
Forced : No

Text #1
ID : 5
Format : UTF-8
Codec ID : S_TEXT/UTF8
Codec ID/Info : UTF-8 Plain Text
Title : Форсированные
Language : Russian
Default : Yes
Forced : No

Text #2
ID : 6
Format : UTF-8
Codec ID : S_TEXT/UTF8
Codec ID/Info : UTF-8 Plain Text
Title : Полные
Language : Russian
Default : No
Forced : No

Text #3
ID : 7
Format : UTF-8
Codec ID : S_TEXT/UTF8
Codec ID/Info : UTF-8 Plain Text
Title : Форсированные
Language : Ukrainian
Default : No
Forced : No

Text #4
ID : 8
Format : UTF-8
Codec ID : S_TEXT/UTF8
Codec ID/Info : UTF-8 Plain Text
Title : Полные
Language : Ukrainian
Default : No
Forced : No

Text #5
ID : 9
Format : UTF-8
Codec ID : S_TEXT/UTF8
Codec ID/Info : UTF-8 Plain Text
Title : Full
Language : English
Default : No
Forced : No

Text #6
ID : 10
Format : UTF-8
Codec ID : S_TEXT/UTF8
Codec ID/Info : UTF-8 Plain Text
Title : SDH
Language : English
Default : No
Forced : No

Menu
00:00:00.000 : :1
00:03:28.625 : :2
00:07:51.678 : :3
00:10:07.981 : :4
00:13:06.701 : :5
00:15:06.739 : :6
00:18:04.540 : :7
00:22:58.710 : :8
00:25:35.325 : :9
00:31:40.897 : :10
00:33:29.214 : :11
00:36:32.815 : :12
00:38:30.891 : :13
00:42:05.481 : :14
00:45:58.213 : :15
00:48:31.449 : :16
00:52:57.007 : :17
00:55:14.351 : :18
01:00:39.760 : :19
01:02:56.563 : :20
01:05:16.786 : :21
01:10:50.496 : :22
01:13:37.287 : :23
01:16:35.215 : :24
01:18:52.226 : :25
01:22:48.296 : :26
01:24:55.340 : :27
01:28:25.216 : :28
01:33:18.551 : :29
01:36:08.761 : :30
01:41:54.690 : :31
01:45:23.442 : :32
01:48:16.488 : :33
01:51:43.654 : :34
01:54:43.667 : :35
01:56:51.503 : :36




Скачать Алита: Боевой ангел 3Д через торрент https://c.radikal.ru/c43/1907/2b/00a4eaddf620.png Скачать, смотреть онлайн Алита: Боевой ангел 3Д бесплантно в хорошем качестве Описание: Действие фильма происходит через 300 лет после Великой войны в XXVI веке. Доктор Идо находит останки женщины-киборга. После ... 8.9 10 9
Info! Золотая раздача, скачанное не засчитывается.
Торрент: Зарегистрирован [2019-07-16 03:50] · скачан: 419 раз
Статус: √ проверено
Размер: 12.55 GB
Как cкачать? Как скачать Алита: Боевой ангел 3Д через торрент | UTorrent

% Раздел Тема Автор DL S | L
3D Фильмы [ 19.4 GB ] Алита: Боевой ангел в 3Д / Alita: Battle Angel 3D | | 1080p serega768 Скачать
1 | 0
3D Фильмы [ 14.53 GB ] Алита: Боевой ангел 3Д / Alita: Battle Angel 3D | Лицензия | 1080p bober100 Скачать
1 | 0

28-11-2019 20:33  


Отключить вcю реклaмy на сайте, в т.ч. и в плеере онлайн просмотра!

16-07-2019 15:41 Алита: Боевой ангел 3Д Скачать торрент  

ЦуКО денёк не дождался вертикальной))



    Дорогой пользователь! Огромная просьба, поблагодарите релизера, оцените раздачу и оставьте свои комментарий, если Вы скачали Алита: Боевой ангел 3Д через торрент бесплатно!!
    Комментировать посты могут только пользователи прошедшие не сложную регистрацию
    Показать сообщения:    


    Алита: Боевой ангел 3Д через торрент
    Скачать бесплатно Алита: Боевой ангел 3Д
    Алита: Боевой ангел 3Д скачать торрент
    Алита: Боевой ангел 3Д смотреть онлайн
    Cкачать фильм Алита: Боевой ангел 3Д бесплатно
    Алита: Боевой ангел 3Д скачать торрент в хорошем качестве
    Алита: Боевой ангел 3Д смотреть онлайн бесплатно в хорошем качестве
    Вы не можете начинать темы
    Вы не можете отвечать на сообщения
    Вы не можете редактировать свои сообщения
    Вы не можете удалять свои сообщения
    Вы не можете голосовать в опросах
    Вы не можете прикреплять файлы к сообщениям
    Вы можете скачивать файлы
    Алита: Боевой ангел 3Д / Alita: Battle Angel 3D [2019, фантастика, боевик, триллер, мелодрама, приключения, BDRip 1080p] [Half OverUnder / Вертикальная анаморфная стереопара] Дубляж [Лицензия] смотреть онлайн, скачать торрент picoco.icu