Ссылка на приватное зеркало всего за 1$. Внимание количество ограничено!!!

OK

1+1

iTunes

мы

OK

1

WEB-DLRip

Джокер

Пифагор

Ведьмак / The Witcher сериал

iTunes

ПШазам

ОК

Оно 2

iTunes

30
pack

Вам бонус

ВАЖНО

!!Акция!!

Alien_RageХит недели

RePack

Resident Evil 21

ИГРА 18+

pack

RePack

jed

RePack

fifa19

RePack

Assassins Creed: Odyssey

RePack

NEED FOR SPEED™ PAYBACK

4 сезон

9 сезон

Бесстыжие 9 сезон

Все сериалы

все сериалы на PB.wtf

RePack

FAR CRY 5
  

Мисс Пуля / Miss Bala (Кэтрин Хардвик) [2019, Боевик, триллер, драма, BDRip 720p] MVO [Лицензия] pb.wtf

Мисс Пуля через торрент pb.wtf

Размер: 6.08 GB | Добавлен: 6 мес. назад | Торрент скачан:86 раз
Скачать  

16-07-2019 05:11 Мисс Пуля Скачать торрент  

Мисс Пуля / Miss Bala«Who would you become to save your family?»
Год выпуска: 2019
Страна: Мексика, США
Жанр: Боевик, триллер, драма
Продолжительность: 01:43:58
Перевод: Профессиональный многоголосый | Лицензия
Субтитры: Русские (Forced, full), украинские (Full), английские

Режиссер: Кэтрин Хардвик

rating

В ролях: Джина Родригез, Энтони Маки, Исмаэль Круз, Мэтт Лауриа, Томас Деккер, Айслинн Дербес, Кристина Рольдо, Рикардо Абарка, Даниэла де ла Фе, Уилл Блэгроув

Описание: Участница конкурса красоты Глория становится свидетельницей жестокой бандитской расправы и попадает в руки харизматичного наркобарона. С помощью шантажа и угроз он использует отчаянную красавицу как пешку в своей игре против ЦРУ и УБН.

Качество: BDRip 720p
Формат: MKV

Видео: MPEG-4 AVC, 1280x536, 7087 Kbit/s, 23.976 fps
Аудио#1: 48 kHz, AC3, 5.1, 640 Kbps | Лицензия | RUS |
Аудио#2: 48 kHz, AC3, 5.1, 640 Kbps | Оригинал | ENG |
скриншот  скриншот  скриншот  скриншот  скриншот  

General
Unique ID : 282350719468218013668631050195674102879 (0xD46AC542645CA729CDB1568D4DA87C5F)
Complete name : D:Video111Miss.Bala.2019.Lic.BDRip.720p.seleZen.mkv
Format : Matroska
Format version : Version 4
File size : 6.08 GiB
Duration : 1 h 43 min
Overall bit rate : 8 369 kb/s
Movie name : Miss Bala 2019 from селезень
Encoded date : UTC 2019-07-16 04:50:24
Writing application : mkvmerge v22.0.0 ('At The End Of The World') 64-bit
Writing library : libebml v1.3.5 + libmatroska v1.4.8

Video
ID : 1
Format : AVC
Format/Info : Advanced Video Codec
Format profile : High@L4.1
Format settings : CABAC / 12 Ref Frames
Format settings, CABAC : Yes
Format settings, Reference : 12 frames
Codec ID : V_MPEG4/ISO/AVC
Duration : 1 h 43 min
Bit rate : 7 087 kb/s
Width : 1 280 pixels
Height : 536 pixels
Display aspect ratio : 2.40:1
Frame rate mode : Constant
Frame rate : 23.976 (24000/1001) FPS
Color space : YUV
Chroma subsampling : 4:2:0
Bit depth : 8 bits
Scan type : Progressive
Bits/(Pixel*Frame) : 0.431
Stream size : 5.15 GiB (85%)
Title : playHD
Writing library : x264 core 146 r2538 121396c
Encoding settings : cabac=1 / ref=12 / deblock=1:-3:-3 / analyse=0x3:0x133 / me=umh / subme=10 / psy=1 / psy_rd=1.00:0.00 / mixed_ref=1 / me_range=32 / chroma_me=1 / trellis=2 / 8x8dct=1 / cqm=0 / deadzone=21,11 / fast_pskip=0 / chroma_qp_offset=-2 / threads=3 / lookahead_threads=1 / sliced_threads=0 / nr=0 / decimate=0 / interlaced=0 / bluray_compat=0 / constrained_intra=0 / bframes=9 / b_pyramid=2 / b_adapt=2 / b_bias=0 / direct=3 / weightb=1 / open_gop=0 / weightp=2 / keyint=250 / keyint_min=23 / scenecut=40 / intra_refresh=0 / rc=crf / mbtree=0 / crf=14.0 / qcomp=0.60 / qpmin=0 / qpmax=69 / qpstep=4 / ip_ratio=1.40 / pb_ratio=1.30 / aq=3:0.80
Language : English
Default : Yes
Forced : No

Audio #1
ID : 2
Format : AC-3
Format/Info : Audio Coding 3
Commercial name : Dolby Digital
Codec ID : A_AC3
Duration : 1 h 43 min
Bit rate mode : Constant
Bit rate : 640 kb/s
Channel(s) : 6 channels
Channel layout : L R C LFE Ls Rs
Sampling rate : 48.0 kHz
Frame rate : 31.250 FPS (1536 SPF)
Bit depth : 16 bits
Compression mode : Lossy
Stream size : 476 MiB (8%)
Title : MVO [License]
Language : Russian
Service kind : Complete Main
Default : Yes
Forced : Yes

Audio #2
ID : 3
Format : AC-3
Format/Info : Audio Coding 3
Commercial name : Dolby Digital
Codec ID : A_AC3
Duration : 1 h 43 min
Bit rate mode : Constant
Bit rate : 640 kb/s
Channel(s) : 6 channels
Channel layout : L R C LFE Ls Rs
Sampling rate : 48.0 kHz
Frame rate : 31.250 FPS (1536 SPF)
Bit depth : 16 bits
Compression mode : Lossy
Stream size : 476 MiB (8%)
Title : Original
Language : English
Service kind : Complete Main
Default : No
Forced : No

Text #1
ID : 4
Format : UTF-8
Codec ID : S_TEXT/UTF8
Codec ID/Info : UTF-8 Plain Text
Duration : 1 h 40 min
Bit rate : 0 b/s
Count of elements : 2
Stream size : 118 Bytes (0%)
Title : Forced
Language : Russian
Default : Yes
Forced : Yes

Text #2
ID : 5
Format : UTF-8
Codec ID : S_TEXT/UTF8
Codec ID/Info : UTF-8 Plain Text
Duration : 1 h 42 min
Bit rate : 54 b/s
Count of elements : 972
Stream size : 40.6 KiB (0%)
Title : Full
Language : Russian
Default : No
Forced : No

Text #3
ID : 6
Format : UTF-8
Codec ID : S_TEXT/UTF8
Codec ID/Info : UTF-8 Plain Text
Duration : 1 h 42 min
Bit rate : 53 b/s
Count of elements : 971
Stream size : 39.9 KiB (0%)
Title : Full
Language : Ukrainian
Default : No
Forced : No

Text #4
ID : 7
Format : UTF-8
Codec ID : S_TEXT/UTF8
Codec ID/Info : UTF-8 Plain Text
Duration : 1 h 36 min
Bit rate : 35 b/s
Count of elements : 951
Stream size : 24.9 KiB (0%)
Title : Full
Language : English
Default : No
Forced : No

Menu
00:00:00.000 : en:Chapter 01
00:05:31.706 : en:Chapter 02
00:12:15.777 : en:Chapter 03
00:17:39.600 : en:Chapter 04
00:24:00.439 : en:Chapter 05
00:27:02.621 : en:Chapter 06
00:35:19.034 : en:Chapter 07
00:41:09.801 : en:Chapter 08
00:46:20.236 : en:Chapter 09
00:55:58.021 : en:Chapter 10
00:59:22.768 : en:Chapter 11
01:03:48.950 : en:Chapter 12
01:09:17.945 : en:Chapter 13
01:20:28.741 : en:Chapter 14
01:25:28.373 : en:Chapter 15
01:30:06.610 : en:Chapter 16

pb.wtf



Скачать Мисс Пуля через торрент http://img14.lostpic.net/2019/05/08/df7393069d66bbbd1d682552b36116e4.jpg Скачать фильм Мисс Пуля через торрент бесплантно в хорошем качестве Описание: Участница конкурса красоты Глория становится свидетельницей жестокой бандитской расправы и попадает в руки харизматичного ... 10 10 3
Торрент: Зарегистрирован [2019-07-16 05:11] · скачан: 86 раз
Статус: √ проверено
Размер: 6.08 GB
Как cкачать? Как скачать Мисс Пуля через торрент | qTorrent

% Раздел Тема Автор DL S | L
Фильмы (HD 720p, 1080p) (48-60 fps) [ 12.79 GB ] Мисс Пуля / Miss Bala [2019 BDRip 1080p ] MVO [] bober100 Скачать
1 | 0
Фильмы (Blu-ray, BD-Remux, HDDVD) [ 20.17 GB ] Мисс Пуля / Miss Bala [2019 BD Remux 1080p] MVO [] bober100 Скачать
1 | 0
Фильмы 2019-2020 [DVDrip, WEB-DLRip, HDrip] (DUB, MVO) [ 1.46 GB ] Мисс Пуля / Miss Bala [2019 BDRip] MVO [ BD EUR] bober100 Скачать
3 | 0
Фильмы [HD 720p, 1080p] (Хороший звук DUB, MVO) [ 10.38 GB ] Мисс Пуля / Miss Bala [2019 BDRip 1080p] MVO [] bober100 Скачать
1 | 0
Фильмы 2019-2020 [DVDrip, WEB-DLRip, HDrip] (DUB, MVO) [ 2.18 GB ] Мисс Пуля / Miss Bala [2019 BDRip-AVC] MVO [] bober100 Скачать
2 | 0
Фильмы 2019-2020 [DVDrip, WEB-DLRip, HDrip] (DUB, MVO) [ 1.46 GB ] Мисс Пуля / Miss Bala [2019 BDRip] MVO [] Twi7ter Скачать
8 | 2

28-11-2019 20:33  

Отключить всю рекламу на сайте

    Дорогой пользователь! Огромная просьба, поблагодарите релизера, оцените раздачу и оставьте свои комментарий, если Вы скачали Мисс Пуля через торрент бесплатно! Внесите свою лепту в развитие PiratBit!
    Комментировать посты могут только пользователи прошедшие не сложную регистрацию
    Показать сообщения:    

    Мисс Пуля через торрент
    Скачать бесплатно Мисс Пуля
    Мисс Пуля скачать торрент
    Мисс Пуля смотреть онлайн
    Cкачать фильм Мисс Пуля бесплатно
    Мисс Пуля скачать торрент в хорошем качестве
    Мисс Пуля смотреть онлайн бесплатно в хорошем качестве


    Вы не можете начинать темы
    Вы не можете отвечать на сообщения
    Вы не можете редактировать свои сообщения
    Вы не можете удалять свои сообщения
    Вы не можете голосовать в опросах
    Вы не можете прикреплять файлы к сообщениям
    Вы можете скачивать файлы