Ссылка на приватное зеркало нашего сайта всего за 1$. Внимание количество ограничено!!!

2 сезон

iTunes

1 сезон

1

2 сезон

2 сезон

iTunes

1 сезон

RePack

30

Ultimate

ВАЖНО

ИГРА 18+

pack

RePack

MK11
pack

Забери бонус

RePack

jed

!!Акция!!

Alien_Rage

RePack

fifa19

RePack

Assassins Creed: Odyssey

RePack

NEED FOR SPEED™ PAYBACK

4 сезон

9 сезон

Бесстыжие 9 сезон

Все сериалы

все сериалы на PB.wtf

RePack

FAR CRY 5
  

Скрытые преступления / Hidden Crimes (Филипп Ганьон / Philippe Gagnon) [2009, Триллер, WEB-DLRip 720p от KORSAR] [DVO] pb.wtf

Скрытые преступления через торрент pb.wtf

Размер: 4.71 GB | Добавлен: 1 год 4 мес. назад | Торрент скачан:5 раз
Скачать  

16-07-2019 08:14 Скрытые преступления Скачать торрент  

Скрытые преступления / Hidden Crimes

Год выпуска: 2009
Страна: Канада
Жанр: Триллер
Продолжительность: 01:23:22
Режиссер: Филипп Ганьон
В ролях: Тришия Хелфер, Джонатан Скарф, Кристен Холден-Рид, Джеймс Гэллэндерс, Джейк МакЛеод, Конрад Пла

Описание: Макс Карвер украл из филадельфийского банка почти 20 миллионов долларов. Перед тем, как его схватила полиция, он успел спрятать украденные деньги. Через некоторое время его сестра Джулия получает открытку от Макса, которая становится первой подсказкой, как найти деньги. Об этом узнают сообщники Макса и похищают племянника Джулии, требуя от нее найти и отдать деньги им. Вместе с лучшим другом брата, Куртом, Джулия начинает поиски...

Перевод: Профессиональный двухголосый
Субтитры: Английские

Релиз от:

Качество: WEB-DLRip 720p
Формат: MKV

Видео: MPEG-4 AVC, 6761 Кбит/сек, 1280x720, 23,976 кадра/сек
Аудио #1: AC3, 2 ch, 192 Кбит/сек | Русский, профессиональный (двухголосый закадровый)
Аудио #2: EAC3, 2 ch, 224 Кбит/сек | Английский, оригинал

x264 [info]: frame I:1022 Avg QP:14.00 size:171910
x264 [info]: frame P:30998 Avg QP:16.23 size: 68742
x264 [info]: frame B:95841 Avg QP:17.81 size: 22941
----------------------------------------------------
Общее
Уникальный идентификатор : 232343559967844319109150964193450365907 (0xAECBBDF09DB8953BAC625217E75D93D3)
Полное имя : Скрытые.преступления.2009.WEB-DLRip.720p.KORSAR.mkv
Формат : Matroska
Версия формата : Version 2
Размер файла : 4,71 Гбайт
Продолжительность : 1 ч. 28 м.
Общий поток : 7593 Кбит/сек
Дата кодирования : UTC 2018-01-12 05:58:25
Программа кодирования : mkvmerge v5.8.0 ('No Sleep / Pillow') built on Sep 2 2012 15:37:04
Библиотека кодирования : libebml v1.2.3 + libmatroska v1.3.0

Видео
Идентификатор : 1
Формат : AVC
Формат/Информация : Advanced Video Codec
Профиль формата : High@L4.1
Параметр CABAC формата : Да
Параметр ReFrames формата : 9 кадров
Идентификатор кодека : V_MPEG4/ISO/AVC
Продолжительность : 1 ч. 28 м.
Битрейт : 6761 Кбит/сек
Ширина : 1280 пикселей
Высота : 720 пикселей
Соотношение сторон : 16:9
Режим частоты кадров : Постоянный
Частота кадров : 23,976 (24000/1001) кадра/сек
Цветовое пространство : YUV
Субдискретизация насыщенности : 4:2:0
Битовая глубина : 8 бит
Тип развёртки : Прогрессивная
Бит/(Пиксели*Кадры) : 0.306
Размер потока : 4,10 Гбайт (87%)
Заголовок : RIP | MZMA
Библиотека кодирования : x264 core 152 r2851kMod ba24899
Настройки программы : cabac=1 / ref=9 / deblock=1:-3:-3 / analyse=0x3:0x113 / me=umh / subme=11 / psy=1 / fade_compensate=0.00 / psy_rd=1.00:0.00 / mixed_ref=1 / me_range=64 / chroma_me=1 / trellis=2 / 8x8dct=1 / cqm=0 / deadzone=21,11 / fast_pskip=0 / chroma_qp_offset=-2 / threads=6 / lookahead_threads=1 / sliced_threads=0 / nr=0 / decimate=0 / interlaced=0 / bluray_compat=0 / constrained_intra=0 / bframes=16 / b_pyramid=2 / b_adapt=2 / b_bias=0 / direct=3 / weightb=1 / open_gop=0 / weightp=2 / keyint=240 / keyint_min=23 / scenecut=40 / intra_refresh=0 / rc_lookahead=40 / rc=2pass / mbtree=0 / bitrate=6761 / ratetol=1.0 / qcomp=0.60 / qpmin=0 / qpmax=69 / qpstep=4 / cplxblur=20.0 / qblur=0.5 / vbv_maxrate=50000 / vbv_bufsize=62500 / nal_hrd=none / filler=0 / ip_ratio=1.40 / pb_ratio=1.30 / aq=3:0.90
Язык : English
Default : Да
Forced : Нет
Цветовой диапазон : Limited
Основные цвета : BT.709
Характеристики трансфера : BT.709
Коэффициенты матрицы : BT.709

Аудио #1
Идентификатор : 2
Формат : AC-3
Формат/Информация : Audio Coding 3
Параметр Endianness формата : Big
Идентификатор кодека : A_AC3
Продолжительность : 1 ч. 28 м.
Вид битрейта : Постоянный
Битрейт : 192 Кбит/сек
Каналы : 2 канала
Расположение каналов : Front: L R
Частота : 48,0 КГц
Частота кадров : 31,250 кадров/сек (1536 spf)
Битовая глубина : 16 бит
Метод сжатия : С потерями
Размер потока : 122 Мбайт (3%)
Заголовок : DVO
Язык : Russian
ServiceKind/String : Complete Main
Default : Да
Forced : Нет

Аудио #2
Идентификатор : 3
Формат : E-AC-3
Формат/Информация : Enhanced Audio Coding 3
Параметр Endianness формата : Big
Идентификатор кодека : A_EAC3
Продолжительность : 1 ч. 28 м.
Вид битрейта : Постоянный
Битрейт : 640 Кбит/сек
Каналы : 6 каналов
Расположение каналов : Front: L C R, Side: L R, LFE
Частота : 48,0 КГц
Частота кадров : 187,500 кадров/сек (256 spf)
Метод сжатия : С потерями
Размер потока : 407 Мбайт (8%)
Заголовок : Original
Язык : English
ServiceKind/String : Complete Main
Default : Нет
Forced : Нет

Текст #1
Идентификатор : 4
Формат : UTF-8
Идентификатор кодека : S_TEXT/UTF8
Идентификатор кодека/Информация : UTF-8 Plain Text
Язык : English
Default : Нет
Forced : Нет

Текст #2
Идентификатор : 5
Формат : UTF-8
Идентификатор кодека : S_TEXT/UTF8
Идентификатор кодека/Информация : UTF-8 Plain Text
Заголовок : SDH
Язык : English
Default : Нет
Forced : Нет
В SATRip-пе, откуда была взята русская аудиодорожка, не хватает нескольких кратковременных эпизодов, на них сделаны вставки из оригинальной дорожки.
Эпизодов без русской озвучки 3 или 4, они очень короткие, по несколько секунд, звуковой ряд не нарушен, заметного рассинхрона нет.
За раздчу SATRip-па с русской дорожкой спасибо - dean10
pb.wtf



Скачать Скрытые преступления через торрент https://c.radikal.ru/c04/1907/1a/1aa545f661fb.png Скачать фильм Скрытые преступления через торрент бесплантно в хорошем качестве Описание: Макс Карвер украл из филадельфийского банка почти 20 миллионов долларов. Перед тем, как его схватила полиция, он успел спрятать ... 5 10 1
Торрент: Зарегистрирован [2019-07-16 08:14] · скачан: 5 раз
Статус: √ проверено
Размер: 4.71 GB
Как cкачать? Как скачать Скрытые преступления через торрент | qTorrent

28-11-2019 20:33  

Отключить всю рекламу на сайте

    Дорогой пользователь! Огромная просьба, поблагодарите релизера, оцените раздачу и оставьте свои комментарий, если Вы скачали Скрытые преступления через торрент бесплатно! Внесите свою лепту в развитие PiratBit!
    Комментировать посты могут только пользователи прошедшие не сложную регистрацию
    Показать сообщения:    

    Скрытые преступления через торрент
    Скачать бесплатно Скрытые преступления
    Скрытые преступления скачать торрент
    Скрытые преступления смотреть онлайн
    Cкачать фильм Скрытые преступления бесплатно
    Скрытые преступления скачать торрент в хорошем качестве
    Скрытые преступления смотреть онлайн бесплатно в хорошем качестве


    Вы не можете начинать темы
    Вы не можете отвечать на сообщения
    Вы не можете редактировать свои сообщения
    Вы не можете удалять свои сообщения
    Вы не можете голосовать в опросах
    Вы не можете прикреплять файлы к сообщениям
    Вы можете скачивать файлы