Ссылка на приватное зеркало нашего сайта всего за 1$. Внимание количество ограничено!!!

2 сезон

iTunes

1 сезон

1

2 сезон

2 сезон

iTunes

1 сезон

RePack

30

Новинка

ВАЖНО

ИГРА 18+

pack

RePack

MK11
pack

Забери бонус

RePack

jed

!!Акция!!

Alien_Rage

RePack

fifa19

RePack

Assassins Creed: Odyssey

RePack

NEED FOR SPEED™ PAYBACK

4 сезон

9 сезон

Бесстыжие 9 сезон

Все сериалы

все сериалы на PB.wtf

RePack

FAR CRY 5
  

Два Джейка / The Two Jakes (Джек Николсон / Jack Nicholson) [1990, криминал, драма, мистика, мелодрама, WEB-DL 1080p от KORSAR] [2xMVO + AVO (А. Гаврилов)] pb.wtf

Два Джейка через торрент pb.wtf

Размер: 15.12 GB | Добавлен: 1 год 4 мес. назад | Торрент скачан:2 раза
Скачать  

16-07-2019 08:22 Два Джейка Скачать торрент  

Два Джейка / The Two Jakes

Страна: США
Студия: 88 Productions, Paramount Pictures
Жанр: криминал, драма, мистика, мелодрама
Год выпуска: 1990
Продолжительность: 02:17:29
Режиссер: Джек Николсон / Jack Nicholson
В ролях: Джек Николсон, Харви Кейтель, Мег Тилли, Мэделин Стоу, Илай Уоллак, Рубен Бладес, Фредерик Форрест, Дэвид Кит, Ричард Фарнсуорт, Трейси Уолтер

Описание: Николсон, поставивший этот фильм, сам сыграл и частного детектива Джейка Гиттеса в этом продолжении "Китайского квартала". Многое изменилось с тех пор, как мы последний раз видели Джейка. Прошла война. В Лос-Анджелесе 1948 года много оптимизма и шальных денег. А Джейк знает: если идти по следу денег, то узнаешь истину. Так Джейк и выходит на убийство в простом на вид деле по супружеской измене.

Релиз от:

Перевод: Профессиональный многоголосый, авторский
Субтитры: Английские
Навигация по главам: Есть

Качество: WEB-DL 1080p
Формат: MKV

Видео: MPEG-4 AVC, 13,8 Мбит/сек, 1920x1080, 23,976 кадра/сек
Аудио #1: AC3, 2 ch, 224 Кбит/сек | Русский, профессиональный (многоголосый закадровый) НТВ+
Аудио #2: AC3, 2 ch, 192 Кбит/сек | Русский, профессиональный (многоголосый закадровый) Paramount channel
Аудио #3: AC3, 6 ch, 384 Кбит/сек | Русский, авторский (одноголосый закадровый) Андрей Гаврилов
Аудио #4: EAC3, 6 ch, 640 Кбит/сек | Английский, оригинал
Аудио #5: EAC3, 2 ch, 224 Кбит/сек | Английский, оригинал
Общее
Уникальный идентификатор : 175784060606396819983819570293559030240 (0x843EC752C631DCECA1290BEF2EE871E0)
Полное имя : Два.Джейка.1990.WEB-DL.1080p.mkv
Формат : Matroska
Версия формата : Version 2
Размер файла : 15,1 Гбайт
Продолжительность : 2 ч. 17 м.
Режим общего битрейта : Переменный
Общий поток : 15,7 Мбит/сек
Дата кодирования : UTC 2018-04-14 12:38:26
Программа кодирования : mkvmerge v5.8.0 ('No Sleep / Pillow') built on Sep 2 2012 15:37:04
Библиотека кодирования : libebml v1.2.3 + libmatroska v1.3.0

Видео
Идентификатор : 1
Формат : AVC
Формат/Информация : Advanced Video Codec
Профиль формата : High@L4
Настройки формата : CABAC / 4 Ref Frames
Параметр CABAC формата : Да
Параметр RefFrames формата : 4 кадра
Идентификатор кодека : V_MPEG4/ISO/AVC
Продолжительность : 2 ч. 17 м.
Вид битрейта : Переменный
Битрейт : 13,8 Мбит/сек
Максимальный битрейт : 15,0 Мбит/сек
Ширина : 1920 пикселей
Высота : 1080 пикселей
Соотношение сторон : 16:9
Режим частоты кадров : Постоянный
Частота кадров : 23,976 (24000/1001) кадра/сек
Цветовое пространство : YUV
Субдискретизация насыщенности : 4:2:0
Битовая глубина : 8 бит
Тип развёртки : Прогрессивная
Бит/(Пиксели*Кадры) : 0.277
Размер потока : 13,2 Гбайт (87%)
Библиотека кодирования : x264 core 148 r2623 d5b2374
Настройки программы : cabac=1 / ref=4 / deblock=1:-1:-1 / analyse=0x3:0x133 / me=umh / subme=9 / psy=1 / psy_rd=1.00:0.15 / mixed_ref=1 / me_range=24 / chroma_me=1 / trellis=2 / 8x8dct=1 / cqm=0 / deadzone=21,11 / fast_pskip=1 / chroma_qp_offset=-3 / threads=34 / lookahead_threads=5 / sliced_threads=0 / nr=150 / decimate=1 / interlaced=0 / bluray_compat=0 / constrained_intra=0 / bframes=8 / b_pyramid=2 / b_adapt=2 / b_bias=0 / direct=3 / weightb=1 / open_gop=0 / weightp=2 / keyint=120 / keyint_min=61 / scenecut=0 / intra_refresh=0 / rc_lookahead=120 / rc=crf / mbtree=1 / crf=18.0 / qcomp=0.60 / qpmin=0 / qpmax=69 / qpstep=4 / vbv_maxrate=15000 / vbv_bufsize=31250 / crf_max=0.0 / nal_hrd=vbr / filler=0 / ip_ratio=1.40 / aq=3:1.00
Язык : English
Default : Да
Forced : Нет
Цветовой диапазон : Limited
Основные цвета : BT.709
Характеристики трансфера : BT.709
Коэффициенты матрицы : BT.709

Аудио #1
Идентификатор : 2
Формат : AC-3
Формат/Информация : Audio Coding 3
Идентификатор кодека : A_AC3
Продолжительность : 2 ч. 17 м.
Вид битрейта : Постоянный
Битрейт : 224 Кбит/сек
Каналы : 2 канала
Расположение каналов : Front: L R
Частота : 48,0 КГц
Частота кадров : 31,250 кадров/сек (1536 SPF)
Битовая глубина : 16 бит
Метод сжатия : С потерями
Размер потока : 220 Мбайт (1%)
Заголовок : MVO | НТВ+
Язык : Russian
По умолчанию : Да
Принудительно : Нет

Аудио #2
Идентификатор : 3
Формат : AC-3
Формат/Информация : Audio Coding 3
Идентификатор кодека : A_AC3
Продолжительность : 2 ч. 17 м.
Вид битрейта : Постоянный
Битрейт : 192 Кбит/сек
Каналы : 2 канала
Расположение каналов : Front: L R
Частота : 48,0 КГц
Частота кадров : 31,250 кадров/сек (1536 SPF)
Битовая глубина : 16 бит
Метод сжатия : С потерями
Размер потока : 189 Мбайт (1%)
Заголовок : MVO | Paramount channel
Язык : Russian
По умолчанию : Нет
Принудительно : Нет

Аудио #3
Идентификатор : 4
Формат : AC-3
Формат/Информация : Audio Coding 3
Идентификатор кодека : A_AC3
Продолжительность : 2 ч. 17 м.
Вид битрейта : Постоянный
Битрейт : 384 Кбит/сек
Каналы : 6 каналов
Расположение каналов : Front: L C R, Side: L R, LFE
Частота : 48,0 КГц
Частота кадров : 31,250 кадров/сек (1536 SPF)
Битовая глубина : 16 бит
Метод сжатия : С потерями
Размер потока : 378 Мбайт (2%)
Заголовок : AVO | А. Гаврилов
Язык : Russian
По умолчанию : Нет
Принудительно : Нет

Аудио #4
Идентификатор : 5
Формат : E-AC-3
Формат/Информация : Enhanced Audio Coding 3
Идентификатор кодека : A_EAC3
Продолжительность : 2 ч. 17 м.
Вид битрейта : Постоянный
Битрейт : 640 Кбит/сек
Каналы : 6 каналов
Расположение каналов : Front: L C R, Side: L R, LFE
Частота : 48,0 КГц
Частота кадров : 187,500 кадров/сек (256 SPF)
Метод сжатия : С потерями
Размер потока : 629 Мбайт (4%)
Заголовок : Original | 5.1 ch
Язык : English
По умолчанию : Нет
Принудительно : Нет

Аудио #5
Идентификатор : 6
Формат : E-AC-3
Формат/Информация : Enhanced Audio Coding 3
Идентификатор кодека : A_EAC3
Продолжительность : 2 ч. 17 м.
Вид битрейта : Постоянный
Битрейт : 224 Кбит/сек
Каналы : 2 канала
Расположение каналов : Front: L R
Частота : 48,0 КГц
Частота кадров : 187,500 кадров/сек (256 SPF)
Метод сжатия : С потерями
Размер потока : 220 Мбайт (1%)
Заголовок : Original | 2.0 ch
Язык : English
По умолчанию : Нет
Принудительно : Нет

Текст #1
Идентификатор : 7
Формат : UTF-8
Идентификатор кодека : S_TEXT/UTF8
Идентификатор кодека/Информация : UTF-8 Plain Text
Язык : English
По умолчанию : Нет
Принудительно : Нет

Текст #2
Идентификатор : 8
Формат : UTF-8
Идентификатор кодека : S_TEXT/UTF8
Идентификатор кодека/Информация : UTF-8 Plain Text
Заголовок : SDH
Язык : English
По умолчанию : Нет
Принудительно : Нет

Меню
00:00:00.000 : en:Scene 1
00:00:18.000 : en:Scene 2
00:02:59.000 : en:Scene 3
00:05:57.000 : en:Scene 4
00:07:09.000 : en:Scene 5
00:09:09.000 : en:Scene 6
00:12:11.000 : en:Scene 7
00:16:41.000 : en:Scene 8
00:19:21.000 : en:Scene 9
00:23:26.000 : en:Scene 10
00:28:37.000 : en:Scene 11
00:31:03.000 : en:Scene 12
00:35:08.000 : en:Scene 13
00:37:44.000 : en:Scene 14
00:39:53.000 : en:Scene 15
00:42:43.000 : en:Scene 16
00:46:09.000 : en:Scene 17
00:49:34.000 : en:Scene 18
00:54:55.000 : en:Scene 19
00:59:36.000 : en:Scene 20
01:05:24.000 : en:Scene 21
01:07:28.000 : en:Scene 22
01:08:20.000 : en:Scene 23
01:10:18.000 : en:Scene 24
01:12:30.000 : en:Scene 25
01:13:30.000 : en:Scene 26
01:18:36.000 : en:Scene 27
01:20:41.000 : en:Scene 28
01:25:32.000 : en:Scene 29
01:30:31.000 : en:Scene 30
01:34:14.000 : en:Scene 31
01:35:27.000 : en:Scene 32
01:37:35.000 : en:Scene 33
01:41:34.000 : en:Scene 34
01:43:53.000 : en:Scene 35
01:51:36.000 : en:Scene 36
01:57:39.000 : en:Scene 37
02:04:52.000 : en:Scene 38
02:08:37.000 : en:Scene 39
02:13:49.000 : en:Scene 40
• Исходник видео WEB-DL Amazon.
pb.wtf



Скачать Два Джейка через торрент https://d.radikal.ru/d01/1907/9b/9a994a665b07.png Скачать фильм Два Джейка через торрент бесплантно в хорошем качестве Описание: Николсон, поставивший этот фильм, сам сыграл и частного детектива Джейка Гиттеса в этом продолжении "ского квартала". Многое ... 5 10 1
Info! Золотая раздача, скачанное не засчитывается.
Торрент: Зарегистрирован [2019-07-16 08:22] · скачан: 2 раз
Статус: √ проверено
Размер: 15.12 GB
Как cкачать? Как скачать Два Джейка через торрент | qTorrent

28-11-2019 20:33  

Отключить всю рекламу на сайте

    Дорогой пользователь! Огромная просьба, поблагодарите релизера, оцените раздачу и оставьте свои комментарий, если Вы скачали Два Джейка через торрент бесплатно! Внесите свою лепту в развитие PiratBit!
    Комментировать посты могут только пользователи прошедшие не сложную регистрацию
    Показать сообщения:    

    Два Джейка через торрент
    Скачать бесплатно Два Джейка
    Два Джейка скачать торрент
    Два Джейка смотреть онлайн
    Cкачать фильм Два Джейка бесплатно
    Два Джейка скачать торрент в хорошем качестве
    Два Джейка смотреть онлайн бесплатно в хорошем качестве


    Вы не можете начинать темы
    Вы не можете отвечать на сообщения
    Вы не можете редактировать свои сообщения
    Вы не можете удалять свои сообщения
    Вы не можете голосовать в опросах
    Вы не можете прикреплять файлы к сообщениям
    Вы можете скачивать файлы