2 сезон

iTunes

MVO

1

2 сезон

iTunes

iTunes

1 сезон

RePack

30

Ultimate

ВАЖНО

ИГРА 18+

pack

RePack

MK11
pack

Легкие деньги

RePack

jed

RePack

fifa19

RePack

RDR2

RePack

NEED FOR SPEED™ PAYBACK

4 сезон

9 сезон

Бесстыжие 9 сезон

Все сериалы

все сериалы на PB.wtf

RePack

FAR CRY 5

Anonymous, доброе утро, мы не успеваем собрать деньги на оплату серверов за декабрь и январь, помогите нам пожалуйста в это трудное время. В качестве благодарности мы отключим Вам всю рекламу на сайте (укажите свой ник в строку Ваше имя)!

×
  
Magnet ссылка

Затерянные во льдах / Arctic (Джо Пенна) [2018, Драма, приключения, триллер, UHD WEBRip 2160p] [SDR] Дубляж [iTunes] pb.wtf

Затерянные во льдах через торрент pb.wtf

Размер: 16.35 GB | Добавлен: 1 год 6 мес. назад | Торрент скачан:59 раз
Скачать  

16-07-2019 09:37 Затерянные во льдах Скачать торрент  

Затерянные во льдах / Arctic««Survival is its own journey»»

Год выпуска: 2018
Страна: Исландия
Жанр: Драма, приключения, триллер
Продолжительность: 01:38:06
Перевод: Дублированный | iTunes
Субтитры: Русские (full), английские(SDH)
Режиссер: Джо Пенна
В ролях:

Мадс Миккельсен (Overgård), Мария Тельма Смарадоттир (Young Woman), Tintrinai Thikhasuk (Helicopter Pilot)
Описание:
В арктической пустыне - ледяной, снежной, оторванной от мира, где температура воздуха может опускаться до 70⁰С, Хаксли, пилот потерпевшего крушение самолёта, отчаянно борется за жизнь. Он научился справляться с холодом, охотиться, чтобы прокормить себя. В этих условиях ему предстоит заботиться о спасательнице, которая попала в шторм и разбилась. Девушка серьёзно ранена, времени ждать помощи нет: Хаксли вместе с умирающей отправляется в путь.
Рейтинг:

MPAA: PG-13 - Детям до 13 лет просмотр не желателен
Качество: UHD WEBRip 2160p
Формат: MKV
Видео: MPEG-4 AVC, 22.0 Мбит/с, 3840x1608, 23.976 кадр/с
Аудио №1: русский / AC3 / 5.1 / 48 kHz / 384 kbps / - Дубляж [iTunes]
Аудио №2: английский / DTS / 5.1 / 48 kHz / 1509 kbps /
Навигация по главам: есть

Complete name : D:\movies\Arctic.2018.2160p.WEBRip.DTS.x264-SHD13.mkv
Format : Matroska
Format version : Version 4
File size : 16.3 GiB
Duration : 1 h 38 min
Overall bit rate : 23.9 Mb/s
Movie name : Arctic.2018.2160p.WEBRip.DTS.x264-SHD13
Encoded date : UTC 2019-07-14 21:42:53
Writing application : mkvmerge v34.0.0 ('Sight and Seen') 64-bit
Writing library : libebml v1.3.7 + libmatroska v1.5.0
Attachments : poster.jpg

Video
ID : 1
Format : AVC
Format/Info : Advanced Video Codec
Format profile : High@L5.1
Format settings : CABAC / 5 Ref Frames
Format settings, CABAC : Yes
Format settings, Reference : 5 frames
Codec ID : V_MPEG4/ISO/AVC
Duration : 1 h 38 min
Bit rate : 22.0 Mb/s
Width : 3 840 pixels
Height : 1 608 pixels
Display aspect ratio : 2.40:1
Frame rate mode : Constant
Frame rate : 23.976 (24000/1001) FPS
Color space : YUV
Chroma subsampling : 4:2:0
Bit depth : 8 bits
Scan type : Progressive
Bits/(Pixel*Frame) : 0.148
Stream size : 15.0 GiB (92%)
Title : Arctic.2018.2160p.WEBRip.DTS.x264-SHD13
Writing library : x264 core 157 r2969 d4099dd
Encoding settings : cabac=1 / ref=5 / deblock=1:-3:-3 / analyse=0x3:0x133 / me=umh / subme=11 / psy=1 / psy_rd=1.00:0.10 / mixed_ref=1 / me_range=48 / chroma_me=1 / trellis=2 / 8x8dct=1 / cqm=0 / deadzone=21,11 / fast_pskip=0 / chroma_qp_offset=-3 / threads=42 / lookahead_threads=7 / sliced_threads=0 / nr=0 / decimate=0 / interlaced=0 / bluray_compat=0 / constrained_intra=0 / bframes=8 / b_pyramid=2 / b_adapt=2 / b_bias=0 / direct=3 / weightb=1 / open_gop=0 / weightp=2 / keyint=240 / keyint_min=24 / scenecut=40 / intra_refresh=0 / rc=crf / mbtree=0 / crf=17.5 / qcomp=0.60 / qpmin=0 / qpmax=69 / qpstep=4 / ip_ratio=1.40 / pb_ratio=1.30 / aq=1:1.00
Language : Russian
Default : Yes
Forced : No

Audio #1
ID : 2
Format : AC-3
Format/Info : Audio Coding 3
Commercial name : Dolby Digital
Codec ID : A_AC3
Duration : 1 h 38 min
Bit rate mode : Constant
Bit rate : 384 kb/s
Channel(s) : 6 channels
Channel layout : L R C LFE Ls Rs
Sampling rate : 48.0 kHz
Frame rate : 31.250 FPS (1536 SPF)
Bit depth : 16 bits
Compression mode : Lossy
Stream size : 269 MiB (2%)
Title : DUB | iTunes
Language : Russian
Service kind : Complete Main
Default : Yes
Forced : No

Audio #2
ID : 3
Format : DTS
Format/Info : Digital Theater Systems
Codec ID : A_DTS
Duration : 1 h 38 min
Bit rate mode : Constant
Bit rate : 1 509 kb/s
Channel(s) : 6 channels
Channel layout : C L R Ls Rs LFE
Sampling rate : 48.0 kHz
Frame rate : 93.750 FPS (512 SPF)
Bit depth : 24 bits
Compression mode : Lossy
Stream size : 1.03 GiB (6%)
Language : English
Default : No
Forced : No

Text #1
ID : 4
Format : UTF-8
Codec ID : S_TEXT/UTF8
Codec ID/Info : UTF-8 Plain Text
Duration : 1 h 31 min
Bit rate : 5 b/s
Count of elements : 132
Stream size : 3.76 KiB (0%)
Title : Full
Language : Russian
Default : Yes
Forced : No

Text #2
ID : 5
Format : UTF-8
Codec ID : S_TEXT/UTF8
Codec ID/Info : UTF-8 Plain Text
Duration : 1 h 25 min
Bit rate : 2 b/s
Count of elements : 127
Stream size : 1.87 KiB (0%)
Title : Full
Language : English
Default : No
Forced : No

Text #3
ID : 6
Format : UTF-8
Codec ID : S_TEXT/UTF8
Codec ID/Info : UTF-8 Plain Text
Duration : 1 h 31 min
Bit rate : 6 b/s
Count of elements : 312
Stream size : 4.54 KiB (0%)
Title : SDH
Language : English
Default : No
Forced : No

Menu
00:00:00.000 : en:00:00:00.000
00:05:09.893 : en:00:05:09.893
00:09:31.112 : en:00:09:31.112
00:14:27.033 : en:00:14:27.033
00:20:48.289 : en:00:20:48.289
00:23:42.254 : en:00:23:42.254
00:30:56.229 : en:00:30:56.229
00:37:04.639 : en:00:37:04.639
00:42:31.632 : en:00:42:31.632
00:48:00.127 : en:00:48:00.127
00:50:30.819 : en:00:50:30.819
00:56:30.095 : en:00:56:30.095
01:02:47.430 : en:01:02:47.430
01:06:19.684 : en:01:06:19.684
01:10:20.258 : en:01:10:20.258
01:13:42.501 : en:01:13:42.501
01:18:53.270 : en:01:18:53.270
01:22:54.928 : en:01:22:54.928
01:26:28.725 : en:01:26:28.725
01:32:47.645 : en:01:32:47.645
pb.wtf



Скачать Затерянные во льдах через торрент https://a.radikal.ru/a36/1907/cd/351d510f99f9.png Скачать фильм Затерянные во льдах через торрент бесплантно в хорошем качестве Описание: В арктической пустыне - ледяной, снежной, оторванной от мира, где температура воздуха может опускаться до 70⁰С, Хаксли, пилот ... 10 10 2
Торрент: Зарегистрирован [2019-07-16 09:37] · скачан: 59 раз
Статус: √ проверено
Размер: 16.35 GB
Как cкачать? Как скачать Затерянные во льдах через торрент | UTorrent

% Раздел Тема Автор DL S | L
Фильмы 2018 [DVDrip, WEB-DLRip, HDrip] (DUB, MVO) [ 1.46 GB ] Затерянные во льдах / Arctic [2018 BDRip] - [] Twi7ter Скачать
62 | 2
Фильмы 2018 [DVDrip, WEB-DLRip, HDrip] (DUB, MVO) [ 1.93 GB ] Затерянные во льдах / Arctic [2018 BDRip-AVC] +MVO [HDRezka Studio] bober100 Скачать
2 | 0
Фильмы (Blu-ray, BD-Remux, HDDVD) [ 24.44 GB ] Затерянные во льдах / Arctic [2018 BD Remux 1080p] bober100 Скачать
1 | 0
Фильмы 2018 [DVDrip, WEB-DLRip, HDrip] (DUB, MVO) [ 1.45 GB ] Затерянные во льдах / Arctic [2018 HDRip] bober100 Скачать
2 | 0
Фильмы [HD 720p, 1080p] (Хороший звук DUB, MVO) [ 9.87 GB ] Затерянные во льдах / Arctic [2018 BDRip 1080p] bober100 Скачать
1 | 0
Фильмы [HD 720p, 1080p] (Хороший звук DUB, MVO) [ 4.52 GB ] Затерянные во льдах / Arctic [2018 BDRip 720p] bober100 Скачать
2 | 0

28-11-2019 20:33  

Отключить всю рекламу на сайте

    Дорогой пользователь! Огромная просьба, поблагодарите релизера, оцените раздачу и оставьте свои комментарий, если Вы скачали Затерянные во льдах через торрент бесплатно! Внесите свою лепту в развитие PiratBit!
    Комментировать посты могут только пользователи прошедшие не сложную регистрацию
    Показать сообщения:    

    Затерянные во льдах через торрент
    Скачать бесплатно Затерянные во льдах
    Затерянные во льдах скачать торрент
    Затерянные во льдах смотреть онлайн
    Cкачать фильм Затерянные во льдах бесплатно
    Затерянные во льдах скачать торрент в хорошем качестве
    Затерянные во льдах смотреть онлайн бесплатно в хорошем качестве


    Вы не можете начинать темы
    Вы не можете отвечать на сообщения
    Вы не можете редактировать свои сообщения
    Вы не можете удалять свои сообщения
    Вы не можете голосовать в опросах
    Вы не можете прикреплять файлы к сообщениям
    Вы можете скачивать файлы