Ссылка на приватное зеркало нашего сайта всего за 1$. Внимание количество ограничено!!!

2 сезон

iTunes

1 сезон

1

2 сезон

2 сезон

iTunes

1 сезон

RePack

30

Новинка

ВАЖНО

ИГРА 18+

pack

RePack

MK11
pack

Забери бонус

RePack

jed

!!Акция!!

Alien_Rage

RePack

fifa19

RePack

Assassins Creed: Odyssey

RePack

NEED FOR SPEED™ PAYBACK

4 сезон

9 сезон

Бесстыжие 9 сезон

Все сериалы

все сериалы на PB.wtf

RePack

FAR CRY 5
  

Белый клык / White Fang (Рэндал Клайзер) [1991 г., Драма, приключения, экранизация, WEB-DL 1080p от KORSAR][MVO + AVO] pb.wtf

Белый клык через торрент pb.wtf

Размер: 11.37 GB | Добавлен: 1 год 4 мес. назад | Торрент скачан:48 раз
Скачать  

16-07-2019 16:58 Белый клык Скачать торрент  

Название: Белый клык
Оригинальное название: White Fang
Год выпуска: 1991
Жанр: Драма, Приключения, экранизация

Режиссер: Рэндал Клайзер
В ролях: Клаус Мария Брандауэр, Итэн Хоук, Сеймур Кэссел, Сьюзэн Хоган, Джеймс Римар, Билл Моусли, Пий Сэвадж, Чарльз Джимми ст.

О фильме: Фильм по мотивам одноимённой повести Джека Лондона.
История о волке Белый клык, который остался сиротой, после того как охотник убил его мать и юноше по имени Джек, прибывшем на Клондайк во времена Золотой Лихорадки на участок, оставленный ему в наследство отцом… Джек и Белый Клык то встречаются, то расстаются, то вновь обретают друг друга. Эта захватывающая история дружбы мальчика и волка будет интересна мальчишкам, увлекающимся приключениями.

rating

Продолжительность: 01:48:46
Выпущено: США, Walt Disney Pictures
Перевод: Профессиональный многоголосый, авторский

Качество: WEB-DL 1080p
Формат: MKV
Видео: MPEG-4 AVC, 13,6 Мбит/сек, 1920x1080, 23,976 кадра/сек
Аудио #1: AC3, 2 ch, 192 Кбит/сек | Русский, профессиональный (многоголосый закадровый) по заказу Первого канала
Аудио #2: AC3, 2 ch, 192 Кбит/сек | Русский, авторский (одноголосый закадровый) Василий Горчаков
Аудио #3: EAC3, 6 ch, 640 Кбит/сек | Английский, оригинал
Субтитры: Английские, немецкие, финские, испанские, французские, шведские
Навигация по главам: Есть

Релиз от:
Общее
Уникальный идентификатор : 202940905146137979258883999577397286995 (0x98ACFF223D404CCEB497F00B62045853)
Полное имя : Белый.клык.1991.WEB-DL.1080p.mkv
Формат : Matroska
Версия формата : Version 2
Размер файла : 11,4 Гбайт
Продолжительность : 1 ч. 48 м.
Общий поток : 15,0 Мбит/сек
Дата кодирования : UTC 2018-06-05 07:21:55
Программа кодирования : mkvmerge v5.8.0 ('No Sleep / Pillow') built on Sep 2 2012 15:37:04
Библиотека кодирования : libebml v1.2.3 + libmatroska v1.3.0

Видео
Идентификатор : 1
Формат : AVC
Формат/Информация : Advanced Video Codec
Профиль формата : High@L4
Настройки формата : CABAC / 4 Ref Frames
Параметр CABAC формата : Да
Параметр RefFrames формата : 4 кадра
Параметр GOP формата : N=1
Идентификатор кодека : V_MPEG4/ISO/AVC
Продолжительность : 1 ч. 48 м.
Вид битрейта : Постоянный
Битрейт : 13,6 Мбит/сек
Номинальный битрейт : 15,0 Мбит/сек
Ширина : 1920 пикселей
Высота : 1080 пикселей
Соотношение сторон : 16:9
Режим частоты кадров : Постоянный
Частота кадров : 23,976 (24000/1001) кадра/сек
Цветовое пространство : YUV
Субдискретизация насыщенности : 4:2:0
Битовая глубина : 8 бит
Тип развёртки : Прогрессивная
Бит/(Пиксели*Кадры) : 0.274
Размер потока : 10,4 Гбайт (91%)
Язык : English
Default : Да
Forced : Нет
Цветовой диапазон : Limited
Основные цвета : BT.709
Характеристики трансфера : BT.709
Коэффициенты матрицы : BT.709

Аудио #1
Идентификатор : 2
Формат : AC-3
Формат/Информация : Audio Coding 3
Идентификатор кодека : A_AC3
Продолжительность : 1 ч. 48 м.
Вид битрейта : Постоянный
Битрейт : 192 Кбит/сек
Каналы : 2 канала
Расположение каналов : Front: L R
Частота : 48,0 КГц
Частота кадров : 31,250 кадров/сек (1536 SPF)
Битовая глубина : 16 бит
Метод сжатия : С потерями
Размер потока : 149 Мбайт (1%)
Заголовок : MVO | ОРТ
Язык : Russian
По умолчанию : Да
Принудительно : Нет

Аудио #2
Идентификатор : 3
Формат : AC-3
Формат/Информация : Audio Coding 3
Идентификатор кодека : A_AC3
Продолжительность : 1 ч. 48 м.
Вид битрейта : Постоянный
Битрейт : 192 Кбит/сек
Каналы : 2 канала
Расположение каналов : Front: L R
Частота : 48,0 КГц
Частота кадров : 31,250 кадров/сек (1536 SPF)
Битовая глубина : 16 бит
Метод сжатия : С потерями
Размер потока : 149 Мбайт (1%)
Заголовок : AVO | В. Горчаков
Язык : Russian
По умолчанию : Нет
Принудительно : Нет

Аудио #3
Идентификатор : 4
Формат : E-AC-3
Формат/Информация : Enhanced Audio Coding 3
Идентификатор кодека : A_EAC3
Продолжительность : 1 ч. 48 м.
Вид битрейта : Постоянный
Битрейт : 640 Кбит/сек
Каналы : 6 каналов
Расположение каналов : Front: L C R, Side: L R, LFE
Частота : 48,0 КГц
Частота кадров : 187,500 кадров/сек (256 SPF)
Метод сжатия : С потерями
Размер потока : 498 Мбайт (4%)
Заголовок : Original
Язык : English
По умолчанию : Нет
Принудительно : Нет

Текст #1
Идентификатор : 5
Формат : UTF-8
Идентификатор кодека : S_TEXT/UTF8
Идентификатор кодека/Информация : UTF-8 Plain Text
Язык : English
По умолчанию : Нет
Принудительно : Нет

Текст #2
Идентификатор : 6
Формат : UTF-8
Идентификатор кодека : S_TEXT/UTF8
Идентификатор кодека/Информация : UTF-8 Plain Text
Заголовок : SDH
Язык : English
По умолчанию : Нет
Принудительно : Нет

Текст #3
Идентификатор : 7
Формат : UTF-8
Идентификатор кодека : S_TEXT/UTF8
Идентификатор кодека/Информация : UTF-8 Plain Text
Заголовок : SDH
Язык : German
По умолчанию : Нет
Принудительно : Нет

Текст #4
Идентификатор : 8
Формат : UTF-8
Идентификатор кодека : S_TEXT/UTF8
Идентификатор кодека/Информация : UTF-8 Plain Text
Язык : Finnish
По умолчанию : Нет
Принудительно : Нет

Текст #5
Идентификатор : 9
Формат : UTF-8
Идентификатор кодека : S_TEXT/UTF8
Идентификатор кодека/Информация : UTF-8 Plain Text
Язык : Spanish
По умолчанию : Нет
Принудительно : Нет

Текст #6
Идентификатор : 10
Формат : UTF-8
Идентификатор кодека : S_TEXT/UTF8
Идентификатор кодека/Информация : UTF-8 Plain Text
Язык : French
По умолчанию : Нет
Принудительно : Нет

Текст #7
Идентификатор : 11
Формат : UTF-8
Идентификатор кодека : S_TEXT/UTF8
Идентификатор кодека/Информация : UTF-8 Plain Text
Язык : Swedish
По умолчанию : Нет
Принудительно : Нет

Меню
00:00:00.000 : en:1. Opening Titles/The Golden Staircase
00:11:24.027 : en:2. Yukon Journey
00:18:15.027 : en:3. Wolves Attack
00:28:39.027 : en:4. Orphaned Pup
00:41:11.027 : en:5. Alex and Jack
00:49:17.027 : en:6. Jack Meets White Fang
00:58:23.027 : en:7. Getting Started
01:06:48.027 : en:8. Beauty Smith's Fighting Wolf
01:16:56.027 : en:9. White Fang's New Home
01:25:50.027 : en:10. Gold!
01:30:39.027 : en:11. Firefight
01:36:13.027 : en:12. Saying Goodbye/End Credits
• Исходник видео WEB-DL Amazon.
pb.wtf



Скачать Белый клык через торрент http://img11.lostpic.net/2017/07/09/98ebd5621dbdf196882e9a9718697d7f.jpg Скачать фильм Белый клык через торрент бесплантно в хорошем качестве О фильме: Фильм по мотивам одноимённой повести Джека Лондона.История о волке Белый клык, который остался сиротой, после того как охотник ... 9.8 10 5
Info! Золотая раздача, скачанное не засчитывается.
Торрент: Зарегистрирован [2019-07-16 16:58] · скачан: 48 раз
Статус: √ проверено
Размер: 11.37 GB
Как cкачать? Как скачать Белый клык через торрент | qTorrent

% Раздел Тема Автор DL S | L
Фильмы (WEB-DL 720p, 1080p) [ 9.67 GB ] Белый клык 2: Легенда о белом волке / White Fang 2: Myth of the White Wolf [1994 WEB-DL 1080p от KORSAR][2xMVO + 2xAVO] Cthulhu Скачать
1 | 0
T Релизы по Парсеру [Игры, Сериалы и Фильмы и другое...] [ 1.25 GB ] Белый клык / Croc-Blanc / White Fang [2018 Мультфильм WEBRip] [VO] killermax2013 Скачать
1 | 0
Фильмы до 2000 г. [ 2.56 GB ] Белый клык 2: Легенда о белом волке / White Fang 2: Myth of the White Wolf [1994 WEB-DLRip-AVC] MVO - ExKinoRay Enigma2010 Скачать
1 | 0

28-11-2019 20:33  

Отключить всю рекламу на сайте

    Дорогой пользователь! Огромная просьба, поблагодарите релизера, оцените раздачу и оставьте свои комментарий, если Вы скачали Белый клык через торрент бесплатно! Внесите свою лепту в развитие PiratBit!
    Комментировать посты могут только пользователи прошедшие не сложную регистрацию
    Показать сообщения:    

    Белый клык через торрент
    Скачать бесплатно Белый клык
    Белый клык скачать торрент
    Белый клык смотреть онлайн
    Cкачать фильм Белый клык бесплатно
    Белый клык скачать торрент в хорошем качестве
    Белый клык смотреть онлайн бесплатно в хорошем качестве


    Вы не можете начинать темы
    Вы не можете отвечать на сообщения
    Вы не можете редактировать свои сообщения
    Вы не можете удалять свои сообщения
    Вы не можете голосовать в опросах
    Вы не можете прикреплять файлы к сообщениям
    Вы можете скачивать файлы