Всегда рабочее зеркало без VPN и Proxy просто перед .vidak.icu напиши любое слово или цифру, Пример http://ak1t.vidak.icu

MVO

Лицензия

1 сезон

1

1 сезон

iTunes

1 сезон

13

1 сезон

Deluxe

pack

Рекомендуем

Пиратка

30

ВАЖНО

RePack

MK11

RePack

jed

RePack

fifa19

RePack

RDR2

RePack

NEED FOR SPEED™ PAYBACK

Кинопоиск HD

6 сезон

 Острые козырьки 6 сезон

Все сериалы

все сериалы на PB.wtf

RePack

FAR CRY 5

Anonymous, нам критически не хватает 2100 руб. на оплату серверов и переферии за МАЙ, помоги нам пожалуйста, вся надежда только на тебя. В благодарность мы отключим тебе всю рекламу на сайте!

×
  
Magnet ссылка

Джон Уик 3 / John Wick: Chapter 3 - Parabellum (Чад Стахелски) [2019, боевик, триллер, криминал, BDRip 720p] Dub, MVO, Sub [Rus] - ExKinoRay pb.wtf

Джон Уик 3 через торрент pb.wtf

Раздают: 2 [ 0 KB/s ] Качают: 1 [ 0 KB/s ]
Размер: 6.14 GB | Добавлен: 2 года 9 мес. назад | Торрент скачан:707 раз
Смотреть онлайн Джон Уик 3 | Скачать    Ребята, помогите собрать деньги на оплату серверов!!!

17-07-2019 00:26 Джон Уик 3 Скачать торрент  

Название: Джон Уик 3
Оригинальное название: John Wick: Chapter 3 - Parabellum
Год выпуска: 2019
Жанр: Боевик, триллер, криминал
Режиссер: Чад Стахелски
В ролях: Киану Ривз, Холли Берри, Иэн МакШейн, Лоуренс Фишборн, Марк Дакаскос, Азия Диллон, Лэнс Реддик, Тобиаш Сигал, Анжелика Хьюстон, Саид Тагмауи

О фильме: В центре сюжета находится Джон Уик — опытный наемный киллер, который убил члена международной гильдии ассасинов, тем самым нарушив профессиональный кодекс, за что был приговорен к смерти. Несмотря на то, что Джона должны были казнить немедленно, ему удалось получить час отсрочки, перед тем, как наемник был признан отступником, отрезанным от гильдии и бывших коллег. И теперь за его голову назначено вознаграждение в 14 миллионов долларов, а десятки самых опасных убийц не остановятся ни перед чем, ведя кровавую охоту на легендарного киллера...

rating

Выпущено: США, Summit Entertainment, 87Eleven, Lionsgate
Продолжительность: 02:10:45
Перевод: Дублированный | [iTunes]
Профессиональный многоголосый | [HDRezka Studio]

Формат: MKV
Качество: BDRip 720p
Видео: MPEG-4 AVC, 1280x534 (2.40:1), 23.976 fps, 5500 Kbps, 0.336 bit/pixel
Аудио 1: 48 kHz, AC3, 5.1, 384 Kbps | Dub | RUS |
Аудио 1: 48 kHz, AC3, 2.0, 192 Kbps | MVO | RUS |
Аудио 2: 48 kHz, AC3, 5.1, 640 Kbps | Оригинал | ENG |
Субтитры: Русские (форсированные и полные (Enigma)), английские (full)
General
Unique ID : 185561298344779341195476798601687586779 (0x8B99CE5C9479B221925EE0508A49D7DB)
Complete name : F:\John.Wick.Chapter.3.Parabellum.2019.2xRus.720p.BluRay.ExKinoRay.mkv
Format : Matroska
Format version : Version 2
File size : 6.14 GiB
Duration : 2 h 10 min
Overall bit rate : 6 719 kb/s
Movie name : John Wick Chapter 3 Parabellum 2019 from ExKinoRay
Encoded date : UTC 2019-09-01 23:14:48
Writing application : mkvmerge v5.6.0 ('Kenya Kane') built on May 27 2012 16:44:04
Writing library : libebml v1.2.3 + libmatroska v1.3.0

Video
ID : 1
Format : AVC
Format/Info : Advanced Video Codec
Format profile : High@L4.1
Format settings, CABAC : Yes
Format settings, ReFrames : 12 frames
Codec ID : V_MPEG4/ISO/AVC
Duration : 2 h 10 min
Bit rate : 5 500 kb/s
Width : 1 280 pixels
Height : 534 pixels
Display aspect ratio : 2.40:1
Frame rate mode : Constant
Frame rate : 23.976 (24000/1001) FPS
Color space : YUV
Chroma subsampling : 4:2:0
Bit depth : 8 bits
Scan type : Progressive
Bits/(Pixel*Frame) : 0.336
Stream size : 4.90 GiB (80%)
Writing library : x264 core 148 r2665kMod a01e339
Encoding settings : cabac=1 / ref=12 / deblock=1:-3:-3 / analyse=0x3:0x133 / me=umh / subme=11 / psy=1 / fade_compensate=0.00 / psy_rd=1.05:0.00 / mixed_ref=1 / me_range=32 / chroma_me=1 / trellis=2 / 8x8dct=1 / cqm=0 / deadzone=21,11 / fast_pskip=0 / chroma_qp_offset=-2 / threads=17 / lookahead_threads=2 / sliced_threads=0 / nr=0 / decimate=0 / interlaced=0 / bluray_compat=0 / constrained_intra=0 / fgo=0 / bframes=8 / b_pyramid=2 / b_adapt=2 / b_bias=0 / direct=3 / weightb=1 / open_gop=0 / weightp=2 / keyint=240 / keyint_min=24 / scenecut=40 / intra_refresh=0 / rc=2pass / mbtree=0 / bitrate=5500 / ratetol=1.0 / qcomp=0.70 / qpmin=0 / qpmax=69 / qpstep=4 / cplxblur=20.0 / qblur=0.5 / ip_ratio=1.20 / pb_ratio=1.20 / aq=3:0.85
Language : English
Default : Yes
Forced : No

Audio #1
ID : 2
Format : AC-3
Format/Info : Audio Coding 3
Mode extension : CM (complete main)
Format settings, Endianness : Big
Codec ID : A_AC3
Duration : 2 h 10 min
Bit rate mode : Constant
Bit rate : 384 kb/s
Channel(s) : 6 channels
Channel positions : Front: L C R, Side: L R, LFE
Sampling rate : 48.0 kHz
Frame rate : 31.250 FPS (1536 spf)
Compression mode : Lossy
Stream size : 359 MiB (6%)
Title : Dub (iTunes)
Language : Russian
Default : Yes
Forced : No

Audio #2
ID : 3
Format : AC-3
Format/Info : Audio Coding 3
Mode extension : CM (complete main)
Format settings, Endianness : Big
Codec ID : A_AC3
Duration : 2 h 10 min
Bit rate mode : Constant
Bit rate : 192 kb/s
Channel(s) : 2 channels
Channel positions : Front: L R
Sampling rate : 48.0 kHz
Frame rate : 31.250 FPS (1536 spf)
Compression mode : Lossy
Stream size : 180 MiB (3%)
Title : MVO (HDRezka Studio)
Language : Russian
Default : No
Forced : No

Audio #3
ID : 4
Format : AC-3
Format/Info : Audio Coding 3
Mode extension : CM (complete main)
Format settings, Endianness : Big
Codec ID : A_AC3
Duration : 2 h 10 min
Bit rate mode : Constant
Bit rate : 640 kb/s
Channel(s) : 6 channels
Channel positions : Front: L C R, Side: L R, LFE
Sampling rate : 48.0 kHz
Frame rate : 31.250 FPS (1536 spf)
Compression mode : Lossy
Stream size : 599 MiB (10%)
Language : English
Default : No
Forced : No

Text #1
ID : 5
Format : UTF-8
Codec ID : S_TEXT/UTF8
Codec ID/Info : UTF-8 Plain Text
Title : Forced (Enigma)
Language : Russian
Default : Yes
Forced : No

Text #2
ID : 6
Format : UTF-8
Codec ID : S_TEXT/UTF8
Codec ID/Info : UTF-8 Plain Text
Title : Full (Enigma)
Language : Russian
Default : No
Forced : No

Text #3
ID : 7
Format : UTF-8
Codec ID : S_TEXT/UTF8
Codec ID/Info : UTF-8 Plain Text
Language : English
Default : No
Forced : No

Menu
00:00:00.000 : en:00:00:00.000
00:08:46.860 : en:00:08:46.860
00:14:06.763 : en:00:14:06.763
00:22:40.401 : en:00:22:40.401
00:31:26.301 : en:00:31:26.301
00:37:51.311 : en:00:37:51.311
00:47:43.319 : en:00:47:43.319
00:57:09.176 : en:00:57:09.176
01:02:56.439 : en:01:02:56.439
01:14:27.671 : en:01:14:27.671
01:20:36.665 : en:01:20:36.665
01:28:48.365 : en:01:28:48.365
01:33:51.793 : en:01:33:51.793
01:41:31.794 : en:01:41:31.794
01:53:44.651 : en:01:53:44.651
01:59:51.434 : en:01:59:51.434


Релиз от:

Автор релиза: pb.wtf



Скачать Джон Уик 3 через торрент https://d.radikal.ru/d05/1907/b8/1064b06d01a1.jpg Скачать, смотреть онлайн Джон Уик 3 бесплантно в хорошем качестве О фильме: В центре сюжета находится Джон Уик — опытный наемный киллер, который убил члена международной гильдии ассасинов, тем самым ... 8.5 10 17
Info! Золотая раздача, скачанное не засчитывается.
Торрент: Зарегистрирован [2019-09-02 03:32] · скачан: 707 раз
Статус: √ проверено
Размер: 6.14 GB
Как cкачать? Как скачать Джон Уик 3 через торрент | UTorrent

% Раздел Тема Автор DL S | L
Фильмы [HD 720p, 1080p] (Хороший звук DUB, MVO) [ 7.38 GB ] Джон Уик 3 / John Wick: Chapter 3 - Parabellum [2019 BDRip 720p] Dub AVO MVO Sub [Rus] - ExKinoRay Enigma2010 Скачать
10 | 0


Последний раз редактировалось: Enigma2010 (2019-09-02 03:35), всего редактировалось 2 раз(а)

28-11-2019 20:33  

Отключить всю рекламу на сайте

17-07-2019 11:10 Джон Уик 3 Скачать торрент  

фильм с субтитрами? круто)))pb.wtf



02-09-2019 05:54 Джон Уик 3 Скачать торрент  

теперь все боевки выглядят ненатурально, их постановочность бросается в глаза. Драйва как в предыдущих частях больше нет, отсюда- фильм выглядит постановочным и интереса не вызывает...pb.wtf



    Дорогой пользователь! Огромная просьба, поблагодарите релизера, оцените раздачу и оставьте свои комментарий, если Вы скачали Джон Уик 3 через торрент бесплатно!
    Комментировать посты могут только пользователи прошедшие не сложную регистрацию
    Показать сообщения:    

    Джон Уик 3 через торрент
    Скачать бесплатно Джон Уик 3
    Джон Уик 3 скачать торрент
    Джон Уик 3 смотреть онлайн
    Cкачать фильм Джон Уик 3 бесплатно
    Джон Уик 3 скачать торрент в хорошем качестве
    Джон Уик 3 смотреть онлайн бесплатно в хорошем качестве


    Вы не можете начинать темы
    Вы не можете отвечать на сообщения
    Вы не можете редактировать свои сообщения
    Вы не можете удалять свои сообщения
    Вы не можете голосовать в опросах
    Вы не можете прикреплять файлы к сообщениям
    Вы можете скачивать файлы