новый адрес
Ссылка на приватное зеркало всего за 1$. Внимание количество ограничено!!!

iTunes

1+1

iTunes

мы

WEB-DL

1

iTunes

Чернобыль

iTunes

Ральф против интернета

Лицензия

ПШазам

Лицензия

Оно 2

Лицензия

30
pack

Вам бонус

ВАЖНО

!!Акция!!

Alien_RageХит недели

RePack

Resident Evil 21

ИГРА 18+

pack

RePack

jed

!!Акция!!

Alien_Rage

RePack

fifa19

RePack

Assassins Creed: Odyssey

RePack

NEED FOR SPEED™ PAYBACK

3 сезон

9 сезон

Бесстыжие 9 сезон

Все сериалы

все сериалы на PB.wtf

RePack

FAR CRY 5
Ребята, катастрофически не хватает 1900р. для оплаты серверов за Октябрь (всвязи с блокировками трафик упал в 3 раза), 1-2р., выручайте.
  

Кукловод: Самый маленький рейх / Puppet Master: The Littlest Reich (Сонни Лагуна, Томмю Виклунд) [2018, Ужасы, HDRip] MVO [HDRezka Studio] pb.wtf

Кукловод: Самый маленький рейх через торрент pb.wtf

Размер: 1.46 GB | Добавлен: 4 мес. 26 д. назад | Торрент скачан:91 раз
Скачать  

17-07-2019 04:51 Кукловод: Самый маленький рейх Скачать торрент  

Кукловод: Самый маленький рейх / Puppet Master: The Littlest Reich
Год выпуска: 2018
Страна: Великобритания , США
Жанр: Ужасы
Продолжительность: 01:29:59
Перевод: Профессиональный (многоголосый) | HDRezka Studio
Субтитры: отдельным файлом / русские (forced)

Режиссер: Сонни Лагуна, Томмю Виклунд

rating


В ролях: Майкл Паре, Томас Леннон, Шарлин Йи, Удо Кир, Барбара Крэмптон, Нельсон Франклин, Маттиас Хьюз, Дженни Пеллисер, Тина Паркер, Бетси Холт

Описание: Эдгар работал продавцом в магазине комиксов и периодически рисовал собственные, надеясь, что когда-то его произведения станут популярными. Но начальник частенько критиковал его идеи, а родители и вовсе считали, что сын занимался ерундой. Однажды Эдгар находит в одном из шкафов родительского дома, куда переехал после развода с женой, страшную куклу. Узнав об аукционе игрушек, организованном в честь 30-летия "Убийств Тулона" наш герой решает отправиться туда, надеясь подороже продать свою находку. Вот только во время мероприятия неведомая зловещая сила неожиданно оживляет всех кукол.

Качество: HDRip
Формат: AVI

Видео: 720x304 (2.35:1), 23.976 fps, XviD build 73 ~1 923 kbps avg
Аудио#1: 48.0 kHz, AC3 Dolby Digital, 2/0 (L,R) ch, ~192 kbps | RUS
Аудио#2: 48.0 kHz, AC3 Dolby Digital, 2/0 (L,R) ch, ~192 kbps | ENG
скриншот  скриншот  скриншот  

General
Формат : AVI
Формат/Информация : Audio Video Interleave
Размер файла : 1,46 Гбайт
Продолжительность : 1 ч. 29 м.
Общий поток : 2321 Кбит/сек
Название фильма : Кукловод -Самый маленький рейх_2018_HDRip
Программа кодирования : VirtualDubMod 1.5.10.3 | (build 2550/release)
Авторское право : порошков

Видео
Идентификатор : 0
Формат : MPEG-4 Visual
Профиль формата : Advanced Simple@L5
Настройки формата : BVOP1 / Custom Matrix
Параметр BVOP формата : 1
Параметр QPel формата : Нет
Параметр GMC формата : Без точки перехода
Параметр матрицы формата : Выборочная
Идентификатор кодека : XVID
Идентификатор кодека/Подсказка : XviD
Продолжительность : 1 ч. 29 м.
Битрейт : 1923 Кбит/сек
Ширина : 720 пикселей
Высота : 304 пикселя
Соотношение сторон : 2,35:1
Частота кадров : 23,976 (24000/1001) кадра/сек
Цветовое пространство : YUV
Субдискретизация насыщенности : 4:2:0
Битовая глубина : 8 бит
Тип развёртки : Прогрессивная
Метод сжатия : С потерями
Бит/(Пиксели*Кадры) : 0.366
Размер потока : 1,21 Гбайт (83%)
Библиотека кодирования : XviD 73

Аудио #1
Идентификатор : 1
Формат : AC-3
Формат/Информация : Audio Coding 3
Коммерческое название : Dolby Digital
Идентификатор кодека : 2000
Продолжительность : 1 ч. 29 м.
Вид битрейта : Постоянный
Битрейт : 192 Кбит/сек
Каналы : 2 канала
ChannelLayout : L R
Частота : 48,0 КГц
Частота кадров : 31,250 кадров/сек (1536 SPF)
Битовая глубина : 16 бит
Метод сжатия : С потерями
Размер потока : 124 Мбайт (8%)
Выравнивание : Разделение по промежуткам
Продолжительность промежутка : 42 мс. (1,00 видеокадр)
Время предзагрузки промежутка : 500 мс.
Заголовок : Rus

Аудио #2
Идентификатор : 2
Формат : AC-3
Формат/Информация : Audio Coding 3
Коммерческое название : Dolby Digital
Идентификатор кодека : 2000
Продолжительность : 1 ч. 29 м.
Вид битрейта : Постоянный
Битрейт : 192 Кбит/сек
Каналы : 2 канала
ChannelLayout : L R
Частота : 48,0 КГц
Частота кадров : 31,250 кадров/сек (1536 SPF)
Битовая глубина : 16 бит
Метод сжатия : С потерями
Размер потока : 124 Мбайт (8%)
Выравнивание : Разделение по промежуткам
Продолжительность промежутка : 42 мс. (1,00 видеокадр)
Время предзагрузки промежутка : 500 мс.
Заголовок : Eng

pb.wtf



Скачать Кукловод: Самый маленький рейх через торрент https://i2.imageban.ru/out/2019/07/16/2dbad317e2ab6a0dabbee524f2af3357.png Скачать фильм Кукловод: Самый маленький рейх через торрент бесплантно в хорошем качестве Описание: Эдгар работал продавцом в магазине комиксов и периодически рисовал собственные, надеясь, что когда-то его произведения станут ... 10 10 9
Торрент: Зарегистрирован [2019-07-17 04:51] · скачан: 91 раз
Статус: T временная
Размер: 1.46 GB
Как cкачать? Как скачать Кукловод: Самый маленький рейх через торрент | qTorrent

% Раздел Тема Автор DL S | L
T Фильмы [HD 720p, 1080p] (Хороший звук DUB, MVO) [ 5.41 GB ] Кукловод: Самый маленький рейх / Puppet Master: The Littlest Reich [2018 BDRip 1080p] MVO [HDRezka Studio] bober100 Скачать
1 | 0

28-11-2019 20:33  

Отключить всю рекламу на сайте

17-07-2019 20:16 Кукловод: Самый маленький рейх Скачать торрент  

Шляпа, трешак на 1 раз вполглаза. Сисек много ))pb.wtf



    Дорогой пользователь! Огромная просьба, поблагодарите релизера, оцените раздачу и оставьте свои комментарий, если Вы скачали Кукловод: Самый маленький рейх через торрент бесплатно! Внесите свою лепту в развитие PiratBit!
    Комментировать посты могут только пользователи прошедшие не сложную регистрацию
    Показать сообщения:    

    Кукловод: Самый маленький рейх через торрент
    Скачать бесплатно Кукловод: Самый маленький рейх
    Кукловод: Самый маленький рейх скачать торрент
    Кукловод: Самый маленький рейх смотреть онлайн
    Cкачать фильм Кукловод: Самый маленький рейх бесплатно
    Кукловод: Самый маленький рейх скачать торрент в хорошем качестве
    Кукловод: Самый маленький рейх смотреть онлайн бесплатно в хорошем качестве


    Вы не можете начинать темы
    Вы не можете отвечать на сообщения
    Вы не можете редактировать свои сообщения
    Вы не можете удалять свои сообщения
    Вы не можете голосовать в опросах
    Вы не можете прикреплять файлы к сообщениям
    Вы можете скачивать файлы