Ссылка на приватное зеркало нашего сайта всего за 1$. Внимание количество ограничено!!!

2 сезон

iTunes

1 сезон

1

iTunes

iTunes

iTunes

1 сезон

RePack

30

ИГРА 18+

pack

ВАЖНО

!!Акция!!

Alien_RageХит недели

RePack

MK11
pack

Забери бонус

RePack

jed

!!Акция!!

Alien_Rage

RePack

fifa19

RePack

Assassins Creed: Odyssey

RePack

NEED FOR SPEED™ PAYBACK

4 сезон

9 сезон

Бесстыжие 9 сезон

Все сериалы

все сериалы на PB.wtf

RePack

FAR CRY 5
  

Дневник убийцы / Сезон: 1 / Серии: 1-12 из 12 (Кирилл Серебренников) [2003, Детектив, DVDRip] pb.wtf

Дневник убийцы через торрент pb.wtf

Раздают: 1 [ 0 KB/s ]
Размер: 5.86 GB | Добавлен: 1 год 3 мес. назад | Торрент скачан:61 раз
Скачать  

17-07-2019 06:26 Дневник убийцы Скачать торрент  

Дневник убийцы Год выпуска: 2003
Страна: Россия
Жанр: Детектив
Продолжительность: ~ 00:43:56
Субтитры: отсутствуют

Режиссер: Кирилл Серебренников

rating

В ролях: Кирилл Пирогов, Александра Куликова, Алексей Гуськов, Дмитрий Марьянов, Галина Кашковская, Андрей Кузичев, Юрий Колокольников, Марина Голуб, Артем Смола, Иван Вырыпаев, Наталья Швец, Алексей Макаров, Галина Тюнина

Описание: Студенты-выпускники устраивают вечеринку в архиве Исторического музея, где случайно находят дневник, датированный 1919 годом. Дневник моментально вызывает интерес, ведь автор с первых строк признается в убийстве пятерых человек. Герои не догадываются, какую роль в их жизни сыграет эта находка… Страшные даяния прошлого служат ключом к разгадке целого ряда преступлений совершенных в наши дни. В далеком 1919-м году в небольшой южный городок, «сбежав от революции», приезжает студент Николай Воинов. Но спастись от красного террора герою не удается. Вместе с пятью жителями городка его приговаривают к расстрелу. Последнюю ночь пред казнью осужденные проводят вместе, а наутро комиссар Роза предлагает Воинову сделку. Если он убьет своих товарищей по несчастью, то его будут считать «расстрелянным условно» и оставят в живых. Николай отвечает отказом, а когда Роза кладет ему в руку пистолет, от нервного напряжения теряет сознание. Очнувшись, он обнаруживает рядом с собой дымящийся револьвер и пять еще теплых трупов. В том же южном городке, но уже в наше время происходит серия загадочных убийств. И вновь, как и много лет назад, здесь один за одним погибают люди. Недавно чудом спасшиеся от смерти, после каждого убийства главная героиня – музейный работник Полина - получает по почте страничку из дневника Николая Воинова. Девушке предстоит выяснить, что происходит в городе сегодня…

Качество: DVDRip
Формат: AVI

Видео: 720x416 (1.73:1), 25 fps, XviD build 47 ~1136 kbps avg, 0.152 bit/pixel
Аудио: 48 kHz, AC3 Dolby Digital, 2/0 (L,R) ch, ~448.00 kbps avg
скриншот  скриншот  скриншот  скриншот  скриншот  

Общее
Полное имя : C:\Users\Downloads\Dnevnik.ubiycy.(12.seriy.iz.12).2002.XviD.DVDRip.Kinozal.tv\Dnevnik.ubiycy.(1.serija.iz.12).2002.XviD.DVDRip.Kinozal.tv.avi
Формат : AVI
Формат/Информация : Audio Video Interleave
Размер файла : 500 Мбайт
Продолжительность : 43 м.
Общий поток : 1591 Кбит/сек
Программа кодирования : VirtualDubMod 1.5.4.1 (build 2178/release)
Библиотека кодирования : VirtualDubMod build 2178/release

Видео
Идентификатор : 0
Формат : MPEG-4 Visual
Профиль формата : Advanced Simple@L5
Параметр BVOP формата : 1
Параметр QPel формата : Нет
Параметр GMC формата : Без точки перехода
Параметр матрицы формата : Выборочная
Идентификатор кодека : XVID
Идентификатор кодека/Подсказка : XviD
Продолжительность : 43 м.
Битрейт : 1136 Кбит/сек
Ширина : 720 пикселей
Высота : 416 пикселей
Соотношение сторон : 1,731
Частота кадров : 25,000 кадров/сек
Цветовое пространство : YUV
Субдискретизация насыщенности : 4:2:0
Битовая глубина : 8 бит
Тип развёртки : Прогрессивная
Метод сжатия : С потерями
Бит/(Пиксели*Кадры) : 0.152
Размер потока : 357 Мбайт (71%)
Библиотека кодирования : XviD 1.2.0.dev47 (UTC 2006-11-01)

Аудио
Идентификатор : 1
Формат : AC-3
Формат/Информация : Audio Coding 3
Расширение режима : CM (complete main)
Параметр Endianness формата : Big
Идентификатор кодека : 2000
Продолжительность : 43 м.
Вид битрейта : Постоянный
Битрейт : 448 Кбит/сек
Каналы : 2 канала
Расположение каналов : Front: L R
Частота : 48,0 КГц
Битовая глубина : 16 бит
Метод сжатия : С потерями
Размер потока : 141 Мбайт (28%)
Выравнивание : Разделение по промежуткам
Продолжительность промежутка : 96 мс. (2,40 видеокадра)
Время предзагрузки промежутка : 96 мс.
Язык : Russian

pb.wtf



Скачать Дневник убийцы через торрент http://i91.fastpic.ru/big/2017/0330/50/ba3763384c48c4d19470acc0d102a750.jpg Скачать фильм Дневник убийцы через торрент бесплантно в хорошем качестве Описание: Студенты-выпускники устраивают вечеринку в архиве Исторического музея, где случайно находят дневник, датированный 1919 годом. ... 7.8 10 4
Торрент: Зарегистрирован [2019-07-17 06:26] · скачан: 61 раз
Статус: √ проверено
Размер: 5.86 GB
Как cкачать? Как скачать Дневник убийцы через торрент | qTorrent

28-11-2019 20:33  

Отключить всю рекламу на сайте

    Дорогой пользователь! Огромная просьба, поблагодарите релизера, оцените раздачу и оставьте свои комментарий, если Вы скачали Дневник убийцы через торрент бесплатно! Внесите свою лепту в развитие PiratBit!
    Комментировать посты могут только пользователи прошедшие не сложную регистрацию
    Показать сообщения:    

    Дневник убийцы через торрент
    Скачать бесплатно Дневник убийцы
    Дневник убийцы скачать торрент
    Дневник убийцы смотреть онлайн
    Cкачать фильм Дневник убийцы бесплатно
    Дневник убийцы скачать торрент в хорошем качестве
    Дневник убийцы смотреть онлайн бесплатно в хорошем качестве


    Вы не можете начинать темы
    Вы не можете отвечать на сообщения
    Вы не можете редактировать свои сообщения
    Вы не можете удалять свои сообщения
    Вы не можете голосовать в опросах
    Вы не можете прикреплять файлы к сообщениям
    Вы можете скачивать файлы