Ссылка на приватное зеркало нашего сайта всего за 1$. Внимание количество ограничено!!!

2 сезон

iTunes

1 сезон

1

iTunes

iTunes

iTunes

1 сезон

RePack

30

ИГРА 18+

pack

ВАЖНО

!!Акция!!

Alien_RageХит недели

RePack

MK11
pack

Забери бонус

RePack

jed

!!Акция!!

Alien_Rage

RePack

fifa19

RePack

Assassins Creed: Odyssey

RePack

NEED FOR SPEED™ PAYBACK

4 сезон

9 сезон

Бесстыжие 9 сезон

Все сериалы

все сериалы на PB.wtf

RePack

FAR CRY 5
  

Глухарь / Сезон: 1-3 / Серии: 1-160 из 160 (Гузэль Киреева, Вячеслав Каминский, Тимур Алпатов, Юрий Попович, Валерий Мызников) [2008, Детектив, криминал, драма, WEB-DLRip] pb.wtf

Глухарь через торрент pb.wtf

Размер: 104.72 GB | Добавлен: 1 год 3 мес. назад | Торрент скачан:23 раза
Скачать  

17-07-2019 06:45 Глухарь Скачать торрент  

Глухарь Год выпуска: 2008
Страна: Россия
Жанр: Детектив, криминал, драма
Продолжительность: ~ 00:45:00
Перевод: Не требуется
Субтитры: отсутствуют

Режиссер: Гузэль Киреева, Вячеслав Каминский (I), Тимур Алпатов, Юрий Попович, Валерий Мызников

rating

В ролях: Максим Аверин, Денис Рожков, Мария Болтнева, Виктория Тарасова, Владимир Фекленко, Мария Рассказова, Владислав Котлярский, Борис Покровский, Александр Бобров, Александр Баринов, Евгений Самарин, Юлия Самойленко, Людмила Гаврилова (II), Алёна Бочкарева, Марина Штода, Роман Хеидзе, Максим Мальцев, Юрий Макеев, Денис Жариков, Юрий Пономаренко, Владислав Шкляев, Андрей Балякин, Наталья Примак, Анастасия Савицкая, Анна Троянская, Светлана Варецкая, Павел Сухов, Василий Слюсаренко, Сергей Гурьев

Описание: Главные герои — следователь Сергей Глухарев и его приятель, сотрудник районного ДПС Денис Антошин — два рыцаря с массой упреков. Они — простые люди, которые живут самой обычной жизнью, с ее радостями и разочарованиями; до неуязвимых супергероев им так же далеко, как до генеральских погон. У них напряженная работа, низкая зарплата и неустроенная личная жизнь, что, конечно, не прибавляет оптимизма. Но друзья не теряют присутствия духа и продолжают охранять правопорядок. Общество, которое они защищают, не всегда проявляет должное уважение к их нелегкому труду, но Глухарев и Антошин продолжают исполнять свой долг, сохраняя чувство юмора и оставляя место для простых человеческих слабостей…

Качество: WEB-DLRip
Формат: AVI

1-й сезон
Видео: 720x416 (1.73:1), 23.809 fps, XviD build 62 ~1746 kbps avg, 0.25 bit/pixel
Аудио: 44.100 kHz, MPEG Layer 3, 2 ch, ~192.00 kbps avg
2-й сезон
Видео: 720x400 (1.80:1), 23.809 fps, XviD build 62 ~1694 kbps avg, 0.25 bit/pixel
Аудио: 44.100 kHz, MPEG Layer 3, 2 ch, ~192.00 kbps avg
3-й сезон
Видео: 720x400 (1.80:1), 23.809 fps, XviD build 62 ~1695 kbps avg, 0.25 bit/pixel
Аудио: 44.100 kHz, MPEG Layer 3, 2 ch, ~192.00 kbps avg
скриншот   скриншот   скриншот   скриншот   скриншот  

скриншот   скриншот   скриншот   скриншот  

Общее
Полное имя : D:\Gluhar.(1-3.sezonу).2008-2011.WEB-DLRip\Gluhar.(1.sezon.1-48.serii.iz.48).2008.WEB-DLRip\Gluhar.S01E01.WEB-DL.avi
Формат : AVI
Формат/Информация : Audio Video Interleave
Размер файла : 677 Мбайт
Продолжительность : 48 м. 37 с.
Общий поток : 1948 Кбит/сек

Видео
Идентификатор : 0
Формат : MPEG-4 Visual
Профиль формата : Advanced Simple@L5
Параметр BVOP формата : Нет
Параметр QPel формата : Нет
Параметр GMC формата : Без точки перехода
Параметр матрицы формата : Default (MPEG)
Идентификатор кодека : XVID
Идентификатор кодека/Подсказка : XviD
Продолжительность : 48 м. 37 с.
Битрейт : 1670 Кбит/сек
Ширина : 720 пикселей
Высота : 416 пикселей
Соотношение сторон : 1,731
Частота кадров : 23,809 кадра/сек
Цветовое пространство : YUV
Субдискретизация насыщенности : 4:2:0
Битовая глубина : 8 бит
Тип развёртки : Прогрессивная
Метод сжатия : С потерями
Бит/(Пиксели*Кадры) : 0.234
Размер потока : 581 Мбайт (86%)
Библиотека кодирования : XviD 62

Аудио
Идентификатор : 1
Формат : MPEG Audio
Версия формата : Version 1
Профиль формата : Layer 3
Идентификатор кодека : 55
Идентификатор кодека/Подсказка : MP3
Продолжительность : 48 м. 37 с.
Вид битрейта : Постоянный
Битрейт : 192 Кбит/сек
Каналы : 2 канала
Частота : 44,1 КГц
Метод сжатия : С потерями
Размер потока : 66,8 Мбайт (10%)
Выравнивание : Разделение по промежуткам
Библиотека кодирования : LAMELAME_MAJOR_VERSI

pb.wtf



Скачать Глухарь через торрент http://i6.imageban.ru/out/2013/09/20/42950eb0eb8e862f94e45c5d9ad0d231.jpg Скачать фильм Глухарь через торрент бесплантно в хорошем качестве Описание: Главные герои — следователь Сергей Глухарев и его приятель, сотрудник районного ДПС Денис Антошин — два рыцаря с массой упреков. ... 10 10 2
Торрент: Зарегистрирован [2019-07-17 07:17] · скачан: 23 раз
Статус: √ проверено
Размер: 104.72 GB
Как cкачать? Как скачать Глухарь через торрент | qTorrent

% Раздел Тема Автор DL S | L
T Релизы по Парсеру [Игры, Сериалы и Фильмы и другое...] [ 74.22 GB ] Глухарь / Сезон: 1-3 / Серии: 1-160 из 160 [2008-2011 DVDRip] -Lexx- Скачать
1 | 0

28-11-2019 20:33  

Отключить всю рекламу на сайте

    Дорогой пользователь! Огромная просьба, поблагодарите релизера, оцените раздачу и оставьте свои комментарий, если Вы скачали Глухарь через торрент бесплатно! Внесите свою лепту в развитие PiratBit!
    Комментировать посты могут только пользователи прошедшие не сложную регистрацию
    Показать сообщения:    

    Глухарь через торрент
    Скачать бесплатно Глухарь
    Глухарь скачать торрент
    Глухарь смотреть онлайн
    Cкачать фильм Глухарь бесплатно
    Глухарь скачать торрент в хорошем качестве
    Глухарь смотреть онлайн бесплатно в хорошем качестве


    Вы не можете начинать темы
    Вы не можете отвечать на сообщения
    Вы не можете редактировать свои сообщения
    Вы не можете удалять свои сообщения
    Вы не можете голосовать в опросах
    Вы не можете прикреплять файлы к сообщениям
    Вы можете скачивать файлы