Ссылка на приватное зеркало нашего сайта всего за 1$. Внимание количество ограничено!!!

2 сезон

iTunes

1 сезон

1

2 сезон

2 сезон

iTunes

1 сезон

RePack

30

Ultimate

ВАЖНО

ИГРА 18+

pack

RePack

MK11
pack

Забери бонус

RePack

jed

!!Акция!!

Alien_Rage

RePack

fifa19

RePack

Assassins Creed: Odyssey

RePack

NEED FOR SPEED™ PAYBACK

4 сезон

9 сезон

Бесстыжие 9 сезон

Все сериалы

все сериалы на PB.wtf

RePack

FAR CRY 5
  

Роковой патруль / Патруль судного дня / Doom Patrol / Сезон: 1 / Серии: 1-15 из 15 (Крис Мэнли, Салли Ричардсон-Уитфилд, Глен Винтер) [2019, Фантастика, боевик, драма, приключения, WEB-DLRip] MVO [Good People] pb.wtf

Роковой патруль через торрент pb.wtf

Раздают: 2 [ 0 KB/s ]
Размер: 9.39 GB | Добавлен: 1 год 4 мес. назад | Торрент скачан:135 раз
Скачать  

17-07-2019 09:22 Роковой патруль Скачать торрент  

Патруль судного дня / Doom Patrol Год выпуска: 2019
Страна: США
Жанр: Фантастика, боевик, драма, приключения
Продолжительность: ~ 00:50:00
Перевод: Профессиональный (многоголосый закадровый) | Good People

Режиссёр: Крис Мэнли, Салли Ричардсон-Уитфилд, Глен Винтер

В ролях: Дайан Герерро, Эйприл Боулби, Мэтт Бомер, Тимоти Далтон, Райли Шэнэхэн, Мэттью Зук, Брендан Фрейзер, Алан Тьюдик, Джоиван Уэйд, Кайл Расселл Клементс

Описание:Сюжет повествует о супергероях, обретших сверхспособности в результате изувечивших их роковых случайностей. В состав необычной команды под руководством сумасшедшего учёного Найлза Колдера (также известного как Шеф) входят Роботмен, Негативный Человек, Безумная Джейн и Эластичная Женщина. Сломленные и искалеченные, эти люди находят применение своим способностям, защищая Землю от самых невероятных угроз. Роковой патруль — команда изгоев, воюющих за спасение мира, которому нет до них никакого дела.



Качество: WEB-DLRip
Формат: AVI

Видео: XviD, 704x320 (2,2:1), 23,976 кадров/сек, ~1400 Кбит/сек
Аудио Rus: MP3, 48 kHz, 2 ch, 128 Кбит/сек
Аудио Eng: MP3, 48 kHz, 2 ch, 128 Кбит/сек


Реклама: Присутствует звуковая (два раза в начале и конце по 10 сек.)
Общее
Полное имя : G:\Загрузки\Doom Patrol. Season 1 (WEB-DLRip l 400p l Good People)\Doom.Patrol.S01E01.WEB-DLRip.Rus.Eng.GoodPeople.avi
Формат : AVI
Формат/Информация : Audio Video Interleave
Размер файла : 701 Мбайт
Продолжительность : 58 м. 31 с.
Общий поток : 1674 Кбит/сек
Программа кодирования : VirtualDubMod 1.5.10.3 | www.virtualdub-fr.org || (build 2550/release)
Библиотека кодирования : VirtualDubMod build 2550/release

Видео
Идентификатор : 0
Формат : MPEG-4 Visual
Профиль формата : Advanced Simple@L5
Настройки формата : BVOP1 / Custom Matrix
Параметр BVOP формата : 1
Параметр QPel формата : Нет
Параметр GMC формата : Без точки перехода
Параметр матрицы формата : Выборочная
Идентификатор кодека : XVID
Идентификатор кодека/Подсказка : XviD
Продолжительность : 58 м. 31 с.
Битрейт : 1404 Кбит/сек
Ширина : 704 пикселя
Высота : 320 пикселей
Соотношение сторон : 2,2:1
Частота кадров : 23,976 (24000/1001) кадра/сек
Цветовое пространство : YUV
Субдискретизация насыщенности : 4:2:0
Битовая глубина : 8 бит
Тип развёртки : Прогрессивная
Метод сжатия : С потерями
Бит/(Пиксели*Кадры) : 0.260
Размер потока : 588 Мбайт (84%)
Библиотека кодирования : XviD 73

Аудио #1
Идентификатор : 1
Формат : MPEG Audio
Версия формата : Version 1
Профиль формата : Layer 3
Настройки формата : Joint stereo / MS Stereo
Идентификатор кодека : 55
Идентификатор кодека/Подсказка : MP3
Продолжительность : 58 м. 31 с.
Вид битрейта : Постоянный
Битрейт : 128 Кбит/сек
Каналы : 2 канала
Частота : 48,0 КГц
Метод сжатия : С потерями
Размер потока : 53,6 Мбайт (8%)
Выравнивание : Соединение по промежуткам
Продолжительность промежутка : 42 мс. (1,00 видеокадр)
Время предзагрузки промежутка : 504 мс.

Аудио #2
Идентификатор : 2
Формат : MPEG Audio
Версия формата : Version 1
Профиль формата : Layer 3
Настройки формата : Joint stereo / MS Stereo
Идентификатор кодека : 55
Идентификатор кодека/Подсказка : MP3
Продолжительность : 58 м. 31 с.
Вид битрейта : Постоянный
Битрейт : 128 Кбит/сек
Каналы : 2 канала
Частота : 48,0 КГц
Метод сжатия : С потерями
Размер потока : 53,6 Мбайт (8%)
Выравнивание : Соединение по промежуткам
Продолжительность промежутка : 42 мс. (1,00 видеокадр)
Время предзагрузки промежутка : 504 мс.
скриншот  скриншот  скриншот  скриншот  
Когда раздача ведётся путём добавления новых серий, при каждом добавлении создётся новый торрент. Чтобы начать докачку новой серии, пользователям необходимо сделать следующее:
(1) остановить скачивание,
(2) удалить старый торрент у себя из клиента (старые серии удалять не надо),
(3) скачать новый торрент и запустить его у себя в клиенте вместо старого, при этом указать клиенту путь в старую папку, куда и должно происходить скачивание новых серий.
Ваш клиент при этом должен произвести хеширование (проверку) старой папки (если не производит сам - помогите ему сделать это), и будет докачивать только те серии, которых у вас ещё нет. Старые серии при этом не удаляются, а продолжают раздаваться!
Eсли вы уже удалили старые серии, то предотвратить повторную закачку старых серий можно, отжав галочку в соответсвующих местах при запуске нового торрента. По возможности, желательно не удалять старые серии как можно дольше, чтобы релизёр не столько продолжал раздавать старые серии, а смог сконцентрироваться на новых.
pb.wtf



Скачать Роковой патруль через торрент https://i110.fastpic.ru/big/2019/0311/73/b7e6f208dcc0d4833aea0b425bcd0273.jpg Скачать фильм Роковой патруль через торрент бесплантно в хорошем качестве Описание:Сюжет повествует о супергероях, обретших сверхспособности в результате изувечивших их роковых случайностей. В состав необычной ... 10 10 4
Торрент: Зарегистрирован [2019-07-17 09:22] · скачан: 135 раз
Статус: √ проверено
Размер: 9.39 GB
Как cкачать? Как скачать Роковой патруль через торрент | qTorrent

% Раздел Тема Автор DL S | L
Зарубежные сериалы [ 17.93 GB ] Роковой патруль / Патруль судного дня / Doom Patrol / Сезон: 1 / Серии: 1-15 из 15 [2019 WEBRip 720p] MVO [Good People] bober100 Скачать
2 | 0

28-11-2019 20:33  

Отключить всю рекламу на сайте

    Дорогой пользователь! Огромная просьба, поблагодарите релизера, оцените раздачу и оставьте свои комментарий, если Вы скачали Роковой патруль через торрент бесплатно! Внесите свою лепту в развитие PiratBit!
    Комментировать посты могут только пользователи прошедшие не сложную регистрацию
    Показать сообщения:    

    Роковой патруль через торрент
    Скачать бесплатно Роковой патруль
    Роковой патруль скачать торрент
    Роковой патруль смотреть онлайн
    Cкачать фильм Роковой патруль бесплатно
    Роковой патруль скачать торрент в хорошем качестве
    Роковой патруль смотреть онлайн бесплатно в хорошем качестве


    Вы не можете начинать темы
    Вы не можете отвечать на сообщения
    Вы не можете редактировать свои сообщения
    Вы не можете удалять свои сообщения
    Вы не можете голосовать в опросах
    Вы не можете прикреплять файлы к сообщениям
    Вы можете скачивать файлы