Ссылка на приватное зеркало нашего сайта всего за 1$. Внимание количество ограничено!!!

2 сезон

iTunes

1 сезон

1

2 сезон

2 сезон

iTunes

1 сезон

RePack

30

Ultimate

ВАЖНО

ИГРА 18+

pack

RePack

MK11
pack

Забери бонус

RePack

jed

!!Акция!!

Alien_Rage

RePack

fifa19

RePack

Assassins Creed: Odyssey

RePack

NEED FOR SPEED™ PAYBACK

4 сезон

9 сезон

Бесстыжие 9 сезон

Все сериалы

все сериалы на PB.wtf

RePack

FAR CRY 5
  

Маммон / Mammon / Сезон: 2 / Серии: 1-8 из 8 (Сесиль А. Мосли, Яник Хиен, Пол Якман) [2016, боевик, триллер, криминал, детектив, WEB-DL 1080p] MVO [SDI Media] pb.wtf

Маммон через торрент pb.wtf

Размер: 13.29 GB | Добавлен: 1 год 4 мес. назад | Торрент скачан:5 раз
Скачать  

17-07-2019 10:48 Маммон Скачать торрент  

Маммон / Mammon Год выпуска: 2016
Страна: Норвегия
Жанр: боевик, триллер, криминал, детектив
Продолжительность: 0:57:00
Перевод: Профессиональный (многоголосый закадровый) | SDI Media
Субтитры: русские, английские

Режиссёр: Сесиль А. Мосли, Яник Хиен, Пол Якман

rating


В ролях: Йон Ёигарден, Анна Бахе-Вииг, Ингьерд Эгеберг, Нилс Оле Офтебро, Ингар Хельге Гимле, Андерс Даниелсен Лье, Лаура Кристенсен, Ян Гуннар Рёйсе, Ине Ф. Джэнсен

Описание: Журналист газеты раскрывает мошенничество в большой международной компании и обнаруживает, что в это вовлечены его родные. Все это рушит его карьеру и семейные отношения…

Качество: WEB-DL 1080p
Формат: MKV

Видео: AVC, 1920x1080 (16:9), 25.000 fps, 3 480 Kbps (0.067 bit/pixel)
Аудио: AC-3, 48.0 KHz, 2 ch, 192 Kbps, CBR - русский
Аудио 2: E-AC-3, 48.0 KHz, 6 ch, 640 Kbps, CBR - норвежский
Общее
Уникальный идентификатор : 239606639567114922276456117769253018464 (0xB4428F695FC2A3A5A9056F0F5A21DB60)
Полное имя : F:\Маммон (1080p). Сезон 2\Mammon.S02E01.Blot.1080p.WEB-DL.DD+5.1.H.264-SbR.mkv
Формат : Matroska
Версия формата : Version 2
Размер файла : 1,61 Гбайт
Продолжительность : 53 м. 35 с.
Режим общего битрейта : Переменный
Общий поток : 4313 Кбит/сек
Название фильма : Маммон. Сезон 2 / Mammon. Sesong 2 (2016)
Дата кодирования : UTC 2019-07-16 10:27:28
Программа кодирования : mkvmerge v8.2.0 ('World of Adventure') 64bit
Библиотека кодирования : libebml v1.3.1 + libmatroska v1.4.2

Видео
Идентификатор : 1
Формат : AVC
Формат/Информация : Advanced Video Codec
Профиль формата : Main@L4
Настройки формата : CABAC / 3 Ref Frames
Параметр CABAC формата : Да
Параметр RefFrames формата : 3 кадра
Идентификатор кодека : V_MPEG4/ISO/AVC
Продолжительность : 53 м. 35 с.
Вид битрейта : Переменный
Битрейт : 3480 Кбит/сек
Максимальный битрейт : 5220 Кбит/сек
Ширина : 1920 пикселей
Высота : 1080 пикселей
Соотношение сторон : 16:9
Режим частоты кадров : Постоянный
Частота кадров : 25,000 кадров/сек
Цветовое пространство : YUV
Субдискретизация насыщенности : 4:2:0
Битовая глубина : 8 бит
Тип развёртки : Прогрессивная
Бит/(Пиксели*Кадры) : 0.067
Размер потока : 1,27 Гбайт (79%)
Библиотека кодирования : x264 core 148
Настройки программы : cabac=1 / ref=3 / deblock=1:0:0 / analyse=0x1:0x111 / me=umh / subme=10 / psy=1 / psy_rd=1.00:0.00 / mixed_ref=1 / me_range=24 / chroma_me=1 / trellis=2 / 8x8dct=0 / cqm=0 / deadzone=21,11 / fast_pskip=1 / chroma_qp_offset=-2 / threads=8 / lookahead_threads=1 / sliced_threads=0 / nr=0 / decimate=1 / interlaced=0 / bluray_compat=0 / stitchable=1 / constrained_intra=0 / bframes=2 / b_pyramid=0 / b_adapt=2 / b_bias=0 / direct=3 / weightb=1 / open_gop=0 / weightp=2 / keyint=50 / keyint_min=26 / scenecut=0 / intra_refresh=0 / rc_lookahead=50 / rc=2pass / mbtree=1 / bitrate=3480 / ratetol=1.0 / qcomp=0.50 / qpmin=6 / qpmax=51 / qpstep=4 / cplxblur=20.0 / qblur=0.5 / vbv_maxrate=5220 / vbv_bufsize=6960 / nal_hrd=vbr / filler=0 / ip_ratio=1.40 / aq=1:1.00
Язык : Norwegian
Default : Да
Forced : Нет

Аудио #1
Идентификатор : 2
Формат : AC-3
Формат/Информация : Audio Coding 3
Коммерческое название : Dolby Digital
Идентификатор кодека : A_AC3
Продолжительность : 53 м. 35 с.
Вид битрейта : Постоянный
Битрейт : 192 Кбит/сек
Каналы : 2 канала
Channel layout : L R
Частота : 48,0 КГц
Частота кадров : 31,250 кадров/сек (1536 SPF)
Битовая глубина : 16 бит
Метод сжатия : С потерями
Размер потока : 73,6 Мбайт (4%)
Заголовок : Профессиональный (многоголосый закадровый) SDI Media
Язык : Russian
ServiceKind/String : Complete Main
Default : Да
Forced : Нет

Аудио #2
Идентификатор : 3
Формат : E-AC-3
Формат/Информация : Enhanced AC-3
Коммерческое название : Dolby Digital Plus
Идентификатор кодека : A_EAC3
Продолжительность : 53 м. 35 с.
Вид битрейта : Постоянный
Битрейт : 640 Кбит/сек
Каналы : 6 каналов
Channel layout : L R C LFE Ls Rs
Частота : 48,0 КГц
Частота кадров : 31,250 кадров/сек (1536 SPF)
Метод сжатия : С потерями
Размер потока : 245 Мбайт (15%)
Заголовок : Norwegian
Язык : Norwegian
ServiceKind/String : Complete Main
Default : Нет
Forced : Нет

Текст #1
Идентификатор : 4
Формат : ASS
Идентификатор кодека : S_TEXT/ASS
Идентификатор кодека/Информация : Advanced Sub Station Alpha
Метод сжатия : Без потерь
Язык : Russian
Default : Нет
Forced : Нет

Текст #2
Идентификатор : 5
Формат : UTF-8
Идентификатор кодека : S_TEXT/UTF8
Идентификатор кодека/Информация : UTF-8 Plain Text
Язык : Russian
Default : Нет
Forced : Нет

Текст #3
Идентификатор : 6
Формат : UTF-8
Идентификатор кодека : S_TEXT/UTF8
Идентификатор кодека/Информация : UTF-8 Plain Text
Язык : English
Default : Нет
Forced : Нет

Текст #4
Идентификатор : 7
Формат : UTF-8
Идентификатор кодека : S_TEXT/UTF8
Идентификатор кодека/Информация : UTF-8 Plain Text
Язык : Dutch
Default : Нет
Forced : Нет
pb.wtf



Скачать Маммон через торрент https://i108.fastpic.ru/big/2018/1219/73/8a1ae4cbf457022f8ba7a53ef3c0d373.jpg Скачать фильм Маммон через торрент бесплантно в хорошем качестве Описание: Журналист газеты раскрывает мошенничество в большой международной компании и обнаруживает, что в это вовлечены его родные. Все ... 7 10 3
Торрент: Зарегистрирован [2019-07-17 10:48] · скачан: 5 раз
Статус: √ проверено
Размер: 13.29 GB
Как cкачать? Как скачать Маммон через торрент | qTorrent

28-11-2019 20:33  

Отключить всю рекламу на сайте

    Дорогой пользователь! Огромная просьба, поблагодарите релизера, оцените раздачу и оставьте свои комментарий, если Вы скачали Маммон через торрент бесплатно! Внесите свою лепту в развитие PiratBit!
    Комментировать посты могут только пользователи прошедшие не сложную регистрацию
    Показать сообщения:    

    Маммон через торрент
    Скачать бесплатно Маммон
    Маммон скачать торрент
    Маммон смотреть онлайн
    Cкачать фильм Маммон бесплатно
    Маммон скачать торрент в хорошем качестве
    Маммон смотреть онлайн бесплатно в хорошем качестве


    Вы не можете начинать темы
    Вы не можете отвечать на сообщения
    Вы не можете редактировать свои сообщения
    Вы не можете удалять свои сообщения
    Вы не можете голосовать в опросах
    Вы не можете прикреплять файлы к сообщениям
    Вы можете скачивать файлы