Ссылка на приватное зеркало всего за 1$. Внимание количество ограничено!!!

OK

1+1

iTunes

мы

OK

1

WEB-DLRip

Джокер

Пифагор

Ведьмак / The Witcher сериал

Лицензия

ПШазам

ОК

Оно 2

iTunes

30
pack

Вам бонус

ВАЖНО

!!Акция!!

Alien_RageХит недели

RePack

Resident Evil 21

ИГРА 18+

pack

RePack

jed

RePack

fifa19

RePack

Assassins Creed: Odyssey

RePack

NEED FOR SPEED™ PAYBACK

4 сезон

9 сезон

Бесстыжие 9 сезон

Все сериалы

все сериалы на PB.wtf

RePack

FAR CRY 5
  

Другой / The Hole in the Ground (Ли Кронин) [2019, Ужасы, BDRip 1080p] MVO [HDRezka Studio] +AVO [Важенин (BadBajo)] pb.wtf

Другой через торрент pb.wtf

Размер: 6.92 GB | Добавлен: 6 мес. назад | Торрент скачан:101 раз
Скачать  

17-07-2019 11:50 Другой Скачать торрент  

Другой / The Hole in the Ground
Год выпуска: 2019
Страна: Ирландия
Жанр: Ужасы
Продолжительность: 01:30:36
Перевод:

Профессиональный (многоголосый, закадровый) | HDRezka Studio
Авторский (одноголосый, закадровый) | Важенин (BadBajo)

Субтитры: Английские (full *srt)

Режиссер: Ли Кронин

rating

В ролях:

Шана Керслэйк, Джеймс Куинн Марки, Симона Кирби, Стив Уолл, Оуэн Мэкен, Сара Хэнли, Джеймс Космо, Кати Оутинен, Беннетт Эндрю, Дэвид Краули

Описание:

Молодая женщина Сара переезжает с сыном Крисом в дом на окраине небольшого городка. Однажды мальчик убегает из дома, и мать находит его посреди леса рядом с гигантской дырой неизвестного происхождения. А после встречи с местной сумасшедшей, по слухам много лет назад убившей собственного сына, Сара начинает сомневаться - кажется ли ей, что Крис ведёт себя странно, или на самом деле с её ребёнком творится что-то неладное.

Качество: BDRip 1080p
Формат: MKV

Видео: MPEG-4 AVC, 9594 Kбит/с, 1920x808, 23.976 кадр/с
Аудио#1: Русский (АС3, 2ch, 192 Кбит/с, 48.0 KHz) Профессиональный (многоголосый, закадровый) HDRezka Studio
Аудио#2: Русский (АС3, 6ch, 384 Кбит/с, 48.0 KHz) Авторский (одноголосый, закадровый) Важенин (BadBajo)
Аудио#3: Английский (DTS, 6ch, 768 Кбит/с, 48.0 KHz)
скриншот  скриншот  скриншот  скриншот  

Источник: The.Hole.in.the.Ground.2019.LiMiTED.1080p.BluRay.x264-CADAVER
General
Unique ID : 254353279146377442806557000499073606045 (0xBF5AA8E08893BBB8A0FAAFE84517619D)
Complete name : The.Hole.in.the.Ground.2019.BDRip.1080p.mkv
Format : Matroska
Format version : Version 4
File size : 6.92 GiB
Duration : 1 h 30 min
Overall bit rate : 10.9 Mb/s
Encoded date : UTC 2019-07-17 08:28:39
Writing application : mkvmerge v7.1.0 ('Good Love') 64bit built on Jul 27 2014 13:06:55
Writing library : libebml v1.3.0 + libmatroska v1.4.1

Video
ID : 1
Format : AVC
Format/Info : Advanced Video Codec
Format profile : High@L4.1
Format settings : CABAC / 5 Ref Frames
Format settings, CABAC : Yes
Format settings, Reference fra : 5 frames
Codec ID : V_MPEG4/ISO/AVC
Duration : 1 h 30 min
Bit rate : 9 594 kb/s
Width : 1 920 pixels
Height : 808 pixels
Display aspect ratio : 2.40:1
Frame rate mode : Constant
Frame rate : 23.976 (24000/1001) FPS
Color space : YUV
Chroma subsampling : 4:2:0
Bit depth : 8 bits
Scan type : Progressive
Bits/(Pixel*Frame) : 0.258
Stream size : 6.06 GiB (88%)
Writing library : x264 core 157 r2969 d4099dd
Encoding settings : cabac=1 / ref=5 / deblock=1:-3:-3 / analyse=0x3:0x133 / me=umh / subme=9 / psy=1 / psy_rd=1.00:0.00 / mixed_ref=1 / me_range=24 / chroma_me=1 / trellis=1 / 8x8dct=1 / cqm=0 / deadzone=21,11 / fast_pskip=0 / chroma_qp_offset=-2 / threads=24 / lookahead_threads=4 / sliced_threads=0 / nr=0 / decimate=1 / interlaced=0 / bluray_compat=0 / constrained_intra=0 / bframes=8 / b_pyramid=2 / b_adapt=2 / b_bias=0 / direct=3 / weightb=1 / open_gop=0 / weightp=2 / keyint=250 / keyint_min=23 / scenecut=40 / intra_refresh=0 / rc_lookahead=60 / rc=2pass / mbtree=1 / bitrate=9594 / ratetol=1.0 / qcomp=0.60 / qpmin=0 / qpmax=69 / qpstep=4 / cplxblur=20.0 / qblur=0.5 / vbv_maxrate=62500 / vbv_bufsize=78125 / nal_hrd=none / filler=0 / ip_ratio=1.40 / aq=1:1.00
Language : English
Default : Yes
Forced : No

Audio #1
ID : 2
Format : AC-3
Format/Info : Audio Coding 3
Commercial name : Dolby Digital
Codec ID : A_AC3
Duration : 1 h 30 min
Bit rate mode : Constant
Bit rate : 192 kb/s
Channel(s) : 2 channels
Channel layout : L R
Sampling rate : 48.0 kHz
Frame rate : 31.250 FPS (1536 SPF)
Bit depth : 16 bits
Compression mode : Lossy
Stream size : 124 MiB (2%)
Title : MVO | HDRezka Studio
Language : Russian
Service kind : Complete Main
Default : Yes
Forced : No

Audio #2
ID : 3
Format : AC-3
Format/Info : Audio Coding 3
Commercial name : Dolby Digital
Codec ID : A_AC3
Duration : 1 h 30 min
Bit rate mode : Constant
Bit rate : 384 kb/s
Channel(s) : 6 channels
Channel layout : L R C LFE Ls Rs
Sampling rate : 48.0 kHz
Frame rate : 31.250 FPS (1536 SPF)
Bit depth : 16 bits
Compression mode : Lossy
Stream size : 249 MiB (4%)
Title : AVO | BadBajo
Language : Russian
Service kind : Complete Main
Default : No
Forced : No

Audio #3
ID : 4
Format : DTS
Format/Info : Digital Theater Systems
Codec ID : A_DTS
Duration : 1 h 30 min
Bit rate mode : Constant
Bit rate : 768 kb/s
Channel(s) : 6 channels
Channel layout : C L R Ls Rs LFE
Sampling rate : 48.0 kHz
Frame rate : 93.750 FPS (512 SPF)
Bit depth : 24 bits
Compression mode : Lossy
Stream size : 498 MiB (7%)
Language : English
Default : No
Forced : No

Text
ID : 5
Format : UTF-8
Codec ID : S_TEXT/UTF8
Codec ID/Info : UTF-8 Plain Text
Duration : 1 h 21 min
Bit rate : 23 b/s
Count of elements : 505
Stream size : 13.7 KiB (0%)
Language : English
Default : No
Forced : No

Menu
00:00:00.000 : en:Chapter 01
00:06:27.012 : en:Chapter 02
00:14:09.348 : en:Chapter 03
00:22:52.705 : en:Chapter 04
00:32:06.550 : en:Chapter 05
00:40:21.252 : en:Chapter 06
00:48:36.455 : en:Chapter 07
00:55:29.034 : en:Chapter 08
01:02:39.589 : en:Chapter 09
01:09:45.014 : en:Chapter 10
01:16:55.611 : en:Chapter 11
01:22:36.285 : en:Chapter 12

pb.wtf



Скачать Другой через торрент https://a.radikal.ru/a23/1907/ec/8a757970bed9.png Скачать фильм Другой через торрент бесплантно в хорошем качестве Описание: Молодая женщина Сара переезжает с сыном Крисом в дом на окраине небольшого городка. Однажды мальчик убегает из дома, и мать ... 10 10 4
Торрент: Зарегистрирован [2019-07-17 11:50] · скачан: 101 раз
Статус: √ проверено
Размер: 6.92 GB
Как cкачать? Как скачать Другой через торрент | qTorrent

% Раздел Тема Автор DL S | L
Фильмы 2019-2020 [DVDrip, WEB-DLRip, HDrip] (DUB, MVO) [ 1.41 GB ] Другой / The Hole in the Ground [2019 BDRip] - Twi7ter Скачать
12 | 1
Фильмы 2018 [DVDrip, WEB-DLRip, HDrip] (DUB, MVO) [ 1.42 GB ] Другой / The Hole in the Ground [2018 BDRip-AVC ] Dub - ExKinoRay Enigma2010 Скачать
7 | 1
Фильмы 2018 [DVDrip, WEB-DLRip, HDrip] (DUB, MVO) [ 1.54 GB ] Другой / The Hole in the Ground [2018 BDRip-AVC] [MVO] [HDRezka Studio] AVO [BadBajo] - ExKinoRay Enigma2010 Скачать
7 | 0
Фильмы [HD 720p, 1080p] (Хороший звук DUB, MVO) [ 6.79 GB ] Другой / The Hole in the Ground [2019 BDRip 1080p] bober100 Скачать
1 | 0
Фильмы [HD 720p, 1080p] (Хороший звук DUB, MVO) [ 4.61 GB ] Другой / The Hole in the Ground [2019 BDRip 720p] bober100 Скачать
1 | 0
Фильмы 2019-2020 [DVDrip, WEB-DLRip, HDrip] (DUB, MVO) [ 1.44 GB ] Другой / The Hole in the Ground [2019 BDRip] bober100 Скачать
4 | 0
T Фильмы 2018 [DVDrip, WEB-DLRip, HDrip] (DUB, MVO) [ 1.33 GB ] Другой / The Hole in the Ground [2018 WEB-DLRip-AVC] [MVO] [HDRezka Studio] - ExKinoRay Enigma2010 Скачать
3 | 0

28-11-2019 20:33  

Отключить всю рекламу на сайте

    Дорогой пользователь! Огромная просьба, поблагодарите релизера, оцените раздачу и оставьте свои комментарий, если Вы скачали Другой через торрент бесплатно! Внесите свою лепту в развитие PiratBit!
    Комментировать посты могут только пользователи прошедшие не сложную регистрацию
    Показать сообщения:    

    Другой через торрент
    Скачать бесплатно Другой
    Другой скачать торрент
    Другой смотреть онлайн
    Cкачать фильм Другой бесплатно
    Другой скачать торрент в хорошем качестве
    Другой смотреть онлайн бесплатно в хорошем качестве


    Вы не можете начинать темы
    Вы не можете отвечать на сообщения
    Вы не можете редактировать свои сообщения
    Вы не можете удалять свои сообщения
    Вы не можете голосовать в опросах
    Вы не можете прикреплять файлы к сообщениям
    Вы можете скачивать файлы