Ссылка на приватное зеркало нашего сайта всего за 1$. Внимание количество ограничено!!!

2 сезон

iTunes

1 сезон

1

2 сезон

2 сезон

iTunes

1 сезон

RePack

30

Новинка

ВАЖНО

ИГРА 18+

pack

RePack

MK11
pack

Забери бонус

RePack

jed

!!Акция!!

Alien_Rage

RePack

fifa19

RePack

Assassins Creed: Odyssey

RePack

NEED FOR SPEED™ PAYBACK

4 сезон

9 сезон

Бесстыжие 9 сезон

Все сериалы

все сериалы на PB.wtf

RePack

FAR CRY 5
  

Ладья / The Rook / Сезон: 1 / Серии: 1-8 из 8 (Чина Му-Ен, Кари Скогланд, Суну Гонера) [2019, фэнтези, драма, триллер, WEB-DLRip] MVO [Amedia] pb.wtf

Ладья через торрент pb.wtf

Размер: 5.83 GB | Добавлен: 1 год 2 мес. назад | Торрент скачан:13 раз
Скачать  

17-07-2019 17:42 Ладья Скачать торрент  

Ладья / The Rook Год выпуска: 2019
Страна: США
Жанр: фэнтези, драма, триллер
Продолжительность: ~ 00:51:00
Перевод: Профессиональный (многоголосый закадровый) | Amedia
Субтитры: Русские (Forced, Full), английские (SDH)

Режиссёр: Чина Му-Ен, Кари Скогланд, Суну Гонера

В ролях: Эмма Гринвелл, Джон Флетчер, Адриан Лестер, Рут Маделей, Оливия Манн, Ронан Рафтери, Джоэли Ричардсон, Джошуа Сквайр, Катрин Стэдмен, Тоби Кордес

Описание: Мифанви Томас обладает сверхспособностями и страдает от амнезии. Ей нужно понять, кто стоит за таинственными убийствами, и сохранить потерю памяти в секрете от коллег по секретной службе Великобритании.

rating


Качество: WEB-DLRip
Формат: AVI

Видео: XviD, 720x400, 23,976 fps, ~ 1599 kbps
Аудио 1: 48 kHz, AC3 2 ch, ~ 192 kbps|Amedia|
Аудио 2: 48 kHz, AC3 2 ch, ~ 192 kbps
Format : AVI
Format/Info : Audio Video Interleave
File size : 726 MiB
Duration : 50mn 46s
Overall bit rate : 1 998 Kbps
Movie name : Ладья 1х01: Глава 1
Director : Бёдвар (WEB-DLRip 400p)
Writing application : VirtualDubModRus 1.5.10.2 (build 2542/release)
Comment : 04.07.2019

Video
ID : 0
Format : MPEG-4 Visual
Format profile : Advanced Simple@L5
Format settings, BVOP : 1
Format settings, QPel : No
Format settings, GMC : No warppoints
Format settings, Matrix : Default (MPEG)
Codec ID : XVID
Codec ID/Hint : XviD
Duration : 50mn 46s
Bit rate : 1 600 Kbps
Width : 720 pixels
Height : 400 pixels
Display aspect ratio : 16:9
Frame rate : 23.976 (24000/1001) fps
Color space : YUV
Chroma subsampling : 4:2:0
Bit depth : 8 bits
Scan type : Progressive
Compression mode : Lossy
Bits/(Pixel*Frame) : 0.232
Stream size : 581 MiB (80%)
Writing library : XviD 67

Audio #1
ID : 1
Format : AC-3
Format/Info : Audio Coding 3
Mode extension : CM (complete main)
Format settings, Endianness : Big
Codec ID : 2000
Duration : 50mn 46s
Bit rate mode : Constant
Bit rate : 192 Kbps
Channel(s) : 2 channels
Channel positions : Front: L R
Sampling rate : 48.0 KHz
Frame rate : 31.250 fps (1536 spf)
Compression mode : Lossy
Stream size : 69.7 MiB (10%)
Alignment : Split accross interleaves
Interleave, duration : 42 ms (1.00 video frame)
Interleave, preload duratio : 500 ms

Audio #2
ID : 2
Format : AC-3
Format/Info : Audio Coding 3
Mode extension : CM (complete main)
Format settings, Endianness : Big
Codec ID : 2000
Duration : 50mn 46s
Bit rate mode : Constant
Bit rate : 192 Kbps
Channel(s) : 2 channels
Channel positions : Front: L R
Sampling rate : 48.0 KHz
Frame rate : 31.250 fps (1536 spf)
Compression mode : Lossy
Stream size : 69.7 MiB (10%)
Alignment : Split accross interleaves
Interleave, duration : 42 ms (1.00 video frame)
Interleave, preload duratio : 500 ms
скриншот  скриншот  скриншот  скриншот  
Внимание! Раздача ведётся путём добавления новых серий; при каждом добавлении создаётся новый торрент. Чтобы начать докачку новой серии,пользователям необходимо сделать следующее:
(1) остановить скачивание,
(2) удалить старый торрент у себя из клиента (старые серии удалять не надо),
(3) скачать новый торрент и запустить его у себя в клиенте вместо старого, при этом указать клиенту путь в старую папку куда и должнопроисходить скачивание новых серий.

Ваш клиент при этом должен произвести хеширование (проверку) старой папки (если не производит сам - помогите ему сделать это), и будет докачивать только те серии
которых у вас ещё нет. Старые серии при этом не удаляются, а продолжают раздаваться!

Eсли вы уже удалили старые серии, то предотвратить повторную закачку старых серий можно, отжав галочку в соответствующих местах при запуске нового торрента.

По возможности, желательно не удалять старые серии как можно дольше чтобы релизёр не столько продолжал раздавать старые серии, а смог сконцентрироваться на новых.
pb.wtf



Скачать Ладья через торрент https://a.radikal.ru/a01/1907/06/90a7a6c15723.jpg Скачать фильм Ладья через торрент бесплантно в хорошем качестве Описание: Мифанви Томас обладает сверхспособностями и страдает от амнезии. Ей нужно понять, кто стоит за таинственными убийствами, и ... 10 10 2
Торрент: Зарегистрирован [2019-08-31 11:15] · скачан: 13 раз
Статус: √ проверено
Размер: 5.83 GB
Как cкачать? Как скачать Ладья через торрент | qTorrent

% Раздел Тема Автор DL S | L
Зарубежные сериалы [ 4.87 GB ] Ладья / The Rook / Сезон: 1 / Серии: 1-8 из 8 [2019 WEB-DLRip] MVO [Jaskier] bober100 Скачать
1 | 0
Зарубежные сериалы [ 13.37 GB ] Ладья / The Rook / Сезон: 1 / Серии: 1-8 из 8 [2019 . WEB-DL 720p] MVO [Jaskier] bober100 Скачать
1 | 0
Зарубежные сериалы [ 25.52 GB ] Ладья / The Rook / Сезон: 1 / Серии: 1-8 из 8 [2019 WEB-DL 1080p] MVO [Jaskier] bober100 Скачать
1 | 0
Зарубежные сериалы [ 27.01 GB ] Ладья / The Rook / Сезон: 1 / Серии: 1-8 из 8 [2019 WEB-DL 1080p] MVO [Lostfilm] bober100 Скачать
1 | 0
Зарубежные сериалы [ 16.74 GB ] Ладья / The Rook / Сезон: 1 / Серии: 1-8 из 8 [2019 WEB-DL 720p] 2xMVO [Novamedia Lostfilm] bober100 Скачать
1 | 0
Зарубежные сериалы [ 25.7 GB ] Ладья / The Rook / Сезон: 1 / Серии: 1-8 из 8 [2019 WEB-DL 1080p] MVO [HDRezka Studio] bober100 Скачать
1 | 0
Зарубежные сериалы [ 5.48 GB ] Ладья / The Rook / Сезон: 1 / Серии: 1-8 из 8 [2019 WEBRip] MVO [HDRezka Studio] bober100 Скачать
1 | 0

28-11-2019 20:33  

Отключить всю рекламу на сайте

    Дорогой пользователь! Огромная просьба, поблагодарите релизера, оцените раздачу и оставьте свои комментарий, если Вы скачали Ладья через торрент бесплатно! Внесите свою лепту в развитие PiratBit!
    Комментировать посты могут только пользователи прошедшие не сложную регистрацию
    Показать сообщения:    

    Ладья через торрент
    Скачать бесплатно Ладья
    Ладья скачать торрент
    Ладья смотреть онлайн
    Cкачать фильм Ладья бесплатно
    Ладья скачать торрент в хорошем качестве
    Ладья смотреть онлайн бесплатно в хорошем качестве


    Вы не можете начинать темы
    Вы не можете отвечать на сообщения
    Вы не можете редактировать свои сообщения
    Вы не можете удалять свои сообщения
    Вы не можете голосовать в опросах
    Вы не можете прикреплять файлы к сообщениям
    Вы можете скачивать файлы