новый адрес
Ссылка на приватное зеркало всего за 1$. Внимание количество ограничено!!!

iTunes

1+1

iTunes

мы

WEB-DL

1

iTunes

Чернобыль

iTunes

Ральф против интернета

Лицензия

ПШазам

Лицензия

Оно 2

Лицензия

30
pack

Вам бонус

ВАЖНО

!!Акция!!

Alien_RageХит недели

RePack

Resident Evil 21

ИГРА 18+

pack

RePack

jed

!!Акция!!

Alien_Rage

RePack

fifa19

RePack

Assassins Creed: Odyssey

RePack

NEED FOR SPEED™ PAYBACK

3 сезон

9 сезон

Бесстыжие 9 сезон

Все сериалы

все сериалы на PB.wtf

RePack

FAR CRY 5
Ребята, катастрофически не хватает 1900р. для оплаты серверов за Октябрь (всвязи с блокировками трафик упал в 3 раза), 1-2р., выручайте.
  

Красивый, плохой, злой / Extremely Wicked, Shockingly Evil and Vile (Джо Берлингер) [2019, Триллер, драма, криминал, биография, BDRip] DUB [iTunes] pb.wtf

Красивый, плохой, злой через торрент pb.wtf

Раздают: 1 [ 0 KB/s ]
Размер: 1.46 GB | Добавлен: 4 мес. 20 д. назад | Торрент скачан:424 раза
Скачать  

17-07-2019 19:47 Красивый, плохой, злой Скачать торрент  

Красивый, плохой, злой / Extremely Wicked, Shockingly Evil and Vile
Год выпуска: 2019
Страна: США
Жанр: Триллер, драма, криминал, биография
Продолжительность: 01:50:17
Перевод: Дублированный | iTunes
Субтитры: русские (форс. вшитые)

Режиссер: Джо Берлингер

rating

В ролях:

Зак Эфрон, Лили Коллинз, Кая Скоделарио, Джон Малкович, Джеффри Донован, Анджела Сарафян, Джеймс Хетфилд, Брайан Джерати, Джим Парсонс, Хейли Джоэл Осмент

Описание:

Тед Банди красив и харизматичен, и устоять перед таким невозможно. Очаровательная Элизабет мечтает встретить настоящую любовь. Кажется, до счастья можно дотянуться рукой. Но вот случается непредвиденное: внезапно Теда заключают под стражу, обвинив его в немыслимых по своей жестокости убийствах женщин. Как поверить, что этот нежный, умный и элегантный мужчина — маньяк-убийца? Её родной и милый Тед… Кто он? Нежный муж, любящий отец или самый кровожадный серийный убийца в истории Америки?

Качество: BDRip
Формат: AVI

Видео: Xvid 73, 720x304, ~1493 kbps, 23,976 fps
Аудио: русский, AC3, 5.1 ch, 48 kHz, 384 kbps | iTunes
скриншот  скриншот  скриншот  скриншот  скриншот  

Общее
Полное имя : F:TorrentKrasivPlohZloyBDRip.avi
Формат : AVI
Формат/Информация : Audio Video Interleave
Профиль формата : OpenDML
Размер файла : 1,46 Гбайт
Продолжительность : 1 ч. 50 м.
Общий поток : 1889 Кбит/сек
Программа кодирования : XviD4PSP 6.0 / 53.6.0

Видео
Идентификатор : 0
Формат : MPEG-4 Visual
Профиль формата : Advanced Simple@L5
Настройки формата : BVOP1 / Custom Matrix
Параметр BVOP формата : 1
Параметр QPel формата : Нет
Параметр GMC формата : Без точки перехода
Параметр матрицы формата : Выборочная
Идентификатор кодека : XVID
Идентификатор кодека/Подсказка : XviD
Продолжительность : 1 ч. 50 м.
Битрейт : 1493 Кбит/сек
Ширина : 720 пикселей
Высота : 304 пикселя
Соотношение сторон : 2,35:1
Частота кадров : 23,976 (23976/1000) кадра/сек
Цветовое пространство : YUV
Субдискретизация насыщенности : 4:2:0
Битовая глубина : 8 бит
Тип развёртки : Прогрессивная
Метод сжатия : С потерями
Бит/(Пиксели*Кадры) : 0.284
Размер потока : 1,15 Гбайт (79%)
Библиотека кодирования : XviD 73

Аудио
Идентификатор : 1
Формат : AC-3
Формат/Информация : Audio Coding 3
Параметр Endianness формата : Big
Идентификатор кодека : 2000
Продолжительность : 1 ч. 50 м.
Вид битрейта : Постоянный
Битрейт : 384 Кбит/сек
Каналы : 6 каналов
Расположение каналов : Front: L C R, Side: L R, LFE
Частота : 48,0 КГц
Частота кадров : 31,250 кадров/сек (1536 SPF)
Битовая глубина : 16 бит
Метод сжатия : С потерями
Размер потока : 303 Мбайт (20%)
Выравнивание : Соединение по промежуткам
Продолжительность промежутка : 32 мс. (0,77 видеокадр)

pb.wtf



Скачать Красивый, плохой, злой через торрент http://lostpix.com/thumbs/2019-07/17/r4bweuched6ufhgzjxvwqdebi.png Скачать фильм Красивый, плохой, злой через торрент бесплантно в хорошем качестве Описание: Тед Банди красив и харизматичен, и устоять перед таким невозможно. Очаровательная Элизабет мечтает встретить настоящую любовь. ... 8.5 10 10
Info! Золотая раздача, скачанное не засчитывается.
Торрент: Зарегистрирован [2019-07-17 20:02] · скачан: 424 раз
Статус: √ проверено
Размер: 1.46 GB
Как cкачать? Как скачать Красивый, плохой, злой через торрент | qTorrent

% Раздел Тема Автор DL S | L
Фильмы [HD 720p, 1080p] (Хороший звук DUB, MVO) [ 7.64 GB ] Красивый плохой злой / Extremely Wicked Shockingly Evil and Vile [2019 биография BDRip 1080p] +MVO [HDRezka Studio] bober100 Скачать
15 | 0
Фильмы 2019 [DVDrip, WEB-DLRip, HDrip] (DUB, MVO) [ 1.41 GB ] Красивый плохой злой / Extremely Wicked Shockingly Evil and Vile [2019 биография BDRip] - Twi7ter Скачать
92 | 2
Фильмы [HD 720p, 1080p] (Хороший звук DUB, MVO) [ 4.11 GB ] Красивый плохой злой / Extremely Wicked Shockingly Evil and Vile [2019 биография BDRip 720p] +MVO [HDRezka Studio] bober100 Скачать
5 | 0
Фильмы 2019 [DVDrip, WEB-DLRip, HDrip] (DUB, MVO) [ 2.17 GB ] Красивый плохой злой / Extremely Wicked Shockingly Evil and Vile [2019 биография BDRip-AVC] +MVO [HDRezka Studio] bober100 Скачать
10 | 0

28-11-2019 20:33  

Отключить всю рекламу на сайте

    Дорогой пользователь! Огромная просьба, поблагодарите релизера, оцените раздачу и оставьте свои комментарий, если Вы скачали Красивый, плохой, злой через торрент бесплатно! Внесите свою лепту в развитие PiratBit!
    Комментировать посты могут только пользователи прошедшие не сложную регистрацию
    Показать сообщения:    

    Красивый, плохой, злой через торрент
    Скачать бесплатно Красивый, плохой, злой
    Красивый, плохой, злой скачать торрент
    Красивый, плохой, злой смотреть онлайн
    Cкачать фильм Красивый, плохой, злой бесплатно
    Красивый, плохой, злой скачать торрент в хорошем качестве
    Красивый, плохой, злой смотреть онлайн бесплатно в хорошем качестве


    Вы не можете начинать темы
    Вы не можете отвечать на сообщения
    Вы не можете редактировать свои сообщения
    Вы не можете удалять свои сообщения
    Вы не можете голосовать в опросах
    Вы не можете прикреплять файлы к сообщениям
    Вы можете скачивать файлы