Ссылка на приватное зеркало нашего сайта всего за 1$. Внимание количество ограничено!!!

2 сезон

iTunes

1 сезон

1

2 сезон

2 сезон

iTunes

1 сезон

RePack

30

Новинка

ВАЖНО

ИГРА 18+

pack

RePack

MK11
pack

Забери бонус

RePack

jed

!!Акция!!

Alien_Rage

RePack

fifa19

RePack

Assassins Creed: Odyssey

RePack

NEED FOR SPEED™ PAYBACK

4 сезон

9 сезон

Бесстыжие 9 сезон

Все сериалы

все сериалы на PB.wtf

RePack

FAR CRY 5
  

Закат: Вампиры в изгнании / Sundown: The Vampire in Retreat (Энтони Хикокс) [1989 г., Ужасы, комедия, вестерн, вампиры, WEB-DL 1080p от KORSAR][MVO + 2xAVO] pb.wtf

Закат: Вампиры в изгнании через торрент pb.wtf

Размер: 6.58 GB | Добавлен: 1 год 4 мес. назад | Торрент скачан:19 раз
Скачать  

17-07-2019 21:02 Закат: Вампиры в изгнании Скачать торрент  

Название: Закат: Вампиры в изгнании
Оригинальное название: Sundown: The Vampire in Retreat
Год выпуска: 1989
Жанр: Ужасы, комедия, вестерн, вампиры

Режиссер: Энтони Хикокс
В ролях: Дэвид Кэрредин, Морган Бриттани, Брюс Кэмпбелл, Джим Метцлер, Максвелл Колфилд, Дебора Формен, Джон Айрленд (I), Дэна Эшбрук, Джон Хэнкок...

О фильме: Много веков вампиры питались человеческой кровью, вылезая на ночную охоту из гробов. Но времена меняются. Могущественный и благородный граф Мордулак привел оставшихся в живых вампиров в маленький городок на американском Западе и пригласил в колонию ученого, специалиста по крови, чтобы он помог им удержаться от убийств. Питаясь искусственным кровезаменителем, производимым на установке синтеза, «исправившиеся» вампиры не ложатся днем спать в свои гробы, а просто прячут глаза за громадными черными очками. Но некоторым вампирам очень захотелось «свежатинки» и они взбунтовались, требуя вернуть вековые традиции. Им придется вступить в сражение за право пить кровь!

rating

Продолжительность: 01:43:42
Выпущено: США, Vestron Pictures
Перевод: Профессиональный многоголосый, авторский

Качество: WEB-DL 1080p
Формат: MKV
Видео: MPEG-4 AVC, 7659 Кбит/сек, 1920x816, 23,976 кадра/сек
Аудио #1: AC3, 2 ch, 192 Кбит/сек | Русский, профессиональный (многоголосый закадровый) ТВ-3, студия "Инис",
Аудио #2: AC3, 2 ch, 192 Кбит/сек | Русский, авторский (одноголосый закадровый) Петр Карцев, со вставкой Алексея Михалева
Аудио #3: AC3, 2 ch, 192 Кбит/сек | Русский, авторский (одноголосый закадровый) Алексей Михалев
Аудио #4: AC3, 6 ch, 448 Кбит/сек | Английский, оригинал, DVD
Аудио #5: EAC3, 2 ch, 224 Кбит/сек | Английский, оригинал, WEB-DL
Субтитры: Английские, финские, испанские
Навигация по главам: Есть

Релиз от:
Общее
Уникальный идентификатор : 254057680879006814673061798045951606524 (0xBF21BAC1DD727BC39650927A1D663EFC)
Полное имя : Закат.Вампиры.в.изгнании.1989.WEB-DL.1080p.mkv
Формат : Matroska
Версия формата : Version 2
Размер файла : 6,58 Гбайт
Продолжительность : 1 ч. 43 м.
Режим общего битрейта : Переменный
Общий поток : 9088 Кбит/сек
Дата кодирования : UTC 2018-05-28 17:58:09
Программа кодирования : mkvmerge v5.8.0 ('No Sleep / Pillow') built on Sep 2 2012 15:37:04
Библиотека кодирования : libebml v1.2.3 + libmatroska v1.3.0

Видео
Идентификатор : 1
Формат : AVC
Формат/Информация : Advanced Video Codec
Профиль формата : High@L4
Настройки формата : CABAC / 4 Ref Frames
Параметр CABAC формата : Да
Параметр RefFrames формата : 4 кадра
Идентификатор кодека : V_MPEG4/ISO/AVC
Продолжительность : 1 ч. 43 м.
Вид битрейта : Переменный
Битрейт : 7659 Кбит/сек
Максимальный битрейт : 15,0 Мбит/сек
Ширина : 1920 пикселей
Высота : 816 пикселей
Соотношение сторон : 2,35:1
Режим частоты кадров : Постоянный
Частота кадров : 23,976 (24000/1001) кадра/сек
Цветовое пространство : YUV
Субдискретизация насыщенности : 4:2:0
Битовая глубина : 8 бит
Тип развёртки : Прогрессивная
Бит/(Пиксели*Кадры) : 0.204
Размер потока : 5,55 Гбайт (84%)
Язык : English
Default : Да
Forced : Нет
Цветовой диапазон : Limited
Основные цвета : BT.709
Характеристики трансфера : BT.709
Коэффициенты матрицы : BT.709

Аудио #1
Идентификатор : 2
Формат : AC-3
Формат/Информация : Audio Coding 3
Идентификатор кодека : A_AC3
Продолжительность : 1 ч. 43 м.
Вид битрейта : Постоянный
Битрейт : 192 Кбит/сек
Каналы : 2 канала
Расположение каналов : Front: L R
Частота : 48,0 КГц
Частота кадров : 31,250 кадров/сек (1536 SPF)
Битовая глубина : 16 бит
Метод сжатия : С потерями
Размер потока : 142 Мбайт (2%)
Заголовок : MVO | ТВ-3
Язык : Russian
По умолчанию : Да
Принудительно : Нет

Аудио #2
Идентификатор : 3
Формат : AC-3
Формат/Информация : Audio Coding 3
Идентификатор кодека : A_AC3
Продолжительность : 1 ч. 43 м.
Вид битрейта : Постоянный
Битрейт : 192 Кбит/сек
Каналы : 2 канала
Расположение каналов : Front: L R
Частота : 48,0 КГц
Частота кадров : 31,250 кадров/сек (1536 SPF)
Битовая глубина : 16 бит
Метод сжатия : С потерями
Размер потока : 142 Мбайт (2%)
Заголовок : AVO | П. Карцев
Язык : Russian
По умолчанию : Нет
Принудительно : Нет

Аудио #3
Идентификатор : 4
Формат : AC-3
Формат/Информация : Audio Coding 3
Идентификатор кодека : A_AC3
Продолжительность : 1 ч. 43 м.
Вид битрейта : Постоянный
Битрейт : 192 Кбит/сек
Каналы : 2 канала
Расположение каналов : Front: L R
Частота : 48,0 КГц
Частота кадров : 31,250 кадров/сек (1536 SPF)
Битовая глубина : 16 бит
Метод сжатия : С потерями
Размер потока : 142 Мбайт (2%)
Заголовок : AVO | А. Михалев
Язык : Russian
По умолчанию : Нет
Принудительно : Нет

Аудио #4
Идентификатор : 5
Формат : AC-3
Формат/Информация : Audio Coding 3
Идентификатор кодека : A_AC3
Продолжительность : 1 ч. 43 м.
Вид битрейта : Постоянный
Битрейт : 448 Кбит/сек
Каналы : 6 каналов
Расположение каналов : Front: L C R, Side: L R, LFE
Частота : 48,0 КГц
Частота кадров : 31,250 кадров/сек (1536 SPF)
Битовая глубина : 16 бит
Метод сжатия : С потерями
Размер потока : 332 Мбайт (5%)
Заголовок : Original | 5.1, DVD
Язык : English
По умолчанию : Нет
Принудительно : Нет

Аудио #5
Идентификатор : 6
Формат : E-AC-3
Формат/Информация : Enhanced Audio Coding 3
Идентификатор кодека : A_EAC3
Продолжительность : 1 ч. 43 м.
Вид битрейта : Постоянный
Битрейт : 224 Кбит/сек
Каналы : 2 канала
Расположение каналов : Front: L R
Частота : 48,0 КГц
Частота кадров : 187,500 кадров/сек (256 SPF)
Метод сжатия : С потерями
Размер потока : 166 Мбайт (2%)
Заголовок : Original | 2.0, WEB-DL
Язык : English
По умолчанию : Нет
Принудительно : Нет

Текст #1
Идентификатор : 7
Формат : UTF-8
Идентификатор кодека : S_TEXT/UTF8
Идентификатор кодека/Информация : UTF-8 Plain Text
Язык : English
По умолчанию : Нет
Принудительно : Нет

Текст #2
Идентификатор : 8
Формат : UTF-8
Идентификатор кодека : S_TEXT/UTF8
Идентификатор кодека/Информация : UTF-8 Plain Text
Заголовок : SDH
Язык : English
По умолчанию : Нет
Принудительно : Нет

Текст #3
Идентификатор : 9
Формат : UTF-8
Идентификатор кодека : S_TEXT/UTF8
Идентификатор кодека/Информация : UTF-8 Plain Text
Язык : Finnish
По умолчанию : Нет
Принудительно : Нет

Текст #4
Идентификатор : 10
Формат : UTF-8
Идентификатор кодека : S_TEXT/UTF8
Идентификатор кодека/Информация : UTF-8 Plain Text
Язык : Spanish
По умолчанию : Нет
Принудительно : Нет

Меню
00:00:00.000 : en:Getting Into Trouble
00:04:05.649 : en:"Can't Take The Sun?"
00:06:51.649 : en:Disciplinary Problems
00:12:14.649 : en:Expected Visitors
00:16:40.649 : en:Temper Tantrum
00:20:04.649 : en:Night Intruder
00:24:13.649 : en:Young Forever
00:28:44.649 : en:"Let's Get to Work"
00:31:02.649 : en:Moving Along
00:36:32.649 : en:Secret Find
00:39:10.649 : en:Asking Questions
00:43:13.649 : en:Vampire Trouble
00:47:55.649 : en:The Dream
00:51:47.649 : en:Tired of It
00:56:17.649 : en:Gathering Forces
01:01:17.649 : en:Fulfilling Destiny
01:04:55.649 : en:Midnight Attack
01:09:35.649 : en:Waging War
01:13:23.649 : en:Under Fire
01:16:16.649 : en:Taking Charge
01:19:09.649 : en:"Daddy's Home"
01:23:41.649 : en:Nothing You Can Do
01:28:33.649 : en:Not Your War
01:33:18.649 : en:Deadly Duel
• Исходник видео WEB-DL Amazon.
• В дорожке #2, П. Карцева (00:30:39 > 00:46:17) присутствовал фрагмент без перевода, на это место сделана вставка с озвучкой А. Михалева.
pb.wtf



Скачать Закат: Вампиры в изгнании через торрент http://a.radikal.ru/a03/1805/ba/add0c9863c49.png Скачать фильм Закат: Вампиры в изгнании через торрент бесплантно в хорошем качестве О фильме: Много веков вампиры питались человеческой кровью, вылезая на ночную охоту из гробов. Но времена меняются. Могущественный и ... 8 10 2
Торрент: Зарегистрирован [2019-07-17 21:02] · скачан: 19 раз
Статус: √ проверено
Размер: 6.58 GB
Как cкачать? Как скачать Закат: Вампиры в изгнании через торрент | qTorrent

28-11-2019 20:33  

Отключить всю рекламу на сайте

    Дорогой пользователь! Огромная просьба, поблагодарите релизера, оцените раздачу и оставьте свои комментарий, если Вы скачали Закат: Вампиры в изгнании через торрент бесплатно! Внесите свою лепту в развитие PiratBit!
    Комментировать посты могут только пользователи прошедшие не сложную регистрацию
    Показать сообщения:    

    Закат: Вампиры в изгнании через торрент
    Скачать бесплатно Закат: Вампиры в изгнании
    Закат: Вампиры в изгнании скачать торрент
    Закат: Вампиры в изгнании смотреть онлайн
    Cкачать фильм Закат: Вампиры в изгнании бесплатно
    Закат: Вампиры в изгнании скачать торрент в хорошем качестве
    Закат: Вампиры в изгнании смотреть онлайн бесплатно в хорошем качестве


    Вы не можете начинать темы
    Вы не можете отвечать на сообщения
    Вы не можете редактировать свои сообщения
    Вы не можете удалять свои сообщения
    Вы не можете голосовать в опросах
    Вы не можете прикреплять файлы к сообщениям
    Вы можете скачивать файлы