Всегда рабочее зеркало без VPN и Proxy просто перед .vidak.icu напиши любое слово или цифру, Пример http://tfg3.vidak.icu

MVO

MVO

1 сезон

1

1 сезон

iTunes

1 сезон

13

1 сезон

Deluxe

pack

Рекомендуем

Repack

30

ВАЖНО

RePack

MK11

RePack

jed

RePack

fifa19

RePack

RDR2

RePack

NEED FOR SPEED™ PAYBACK

Кинопоиск HD

6 сезон

 Острые козырьки 6 сезон

Все сериалы

все сериалы на PB.wtf

RePack

FAR CRY 5
  
Magnet ссылка

Хеллбой / Hellboy (Нил Маршалл) [2019, фэнтези, боевик, приключения, UHD BDRemux 2160p] [Dolby Vision TV] DUB [iTunes] pb.wtf

Хеллбой через торрент pb.wtf

Размер: 62.7 GB | Добавлен: 3 года назад | Торрент скачан:44 раза
Смотреть онлайн Хеллбой | Скачать    Ребята, помогите собрать деньги на оплату серверов!!!

18-07-2019 00:32 Хеллбой Скачать торрент  

Хеллбой / Hellboy««Легенда возвращается»»
Год выпуска: 2019
Страна: США Великобритания Болгария
Жанр: фэнтези, боевик, приключения
Продолжительность: 02:01:02
Перевод: Дублированный | iTunes
Субтитры: Русские (Forced)

Режиссер: Нил Маршалл

rating

В ролях:

Дэвид Харбор (Hellboy), Иэн Макшейн (Professor Broom), Милла Йовович (Nimue / The Blood Queen), Саша Лэйн (Alice Monaghan), Дэниэл Дэ Ким (Major Ben Daimio), Алистэр Петри (Lord Adam Glaren), Софи Оконедо (Lady Hatton), Брин Глисон (Merlin), Томас Хейден Чёрч (Lobster Johnson), Стивен Грэм (Gruagach, озвучка), Марк Стэнли (Arthur), Надя Керанова (Sister)
Описание:

Близится час битвы Хеллбоя с Кровавой королевой, жаждущей отомстить всему человечеству за века в заточении. Оказавшись в эпицентре столкновения миров людей и монстров, Хеллбою придется пройти через ад, чтобы предотвратить надвигающийся апокалипсис.

Качество: UHD BDRemux 2160p | Dolby Vision TV
Формат: MP4

Видео: 3840x2160 at 23.976 fps, MPEG-H HEVC HDR Video, 66100 kbps avg
Аудио: 48 kHz, AC3, 5.1, 384 Kbps | iTunes | RUS |
Релиз от:
Данный вид релизов (контейнер MP4) предназначен для встроенного в ТВ (соответственно, с поддержкой DV) плеер.
Т.Е. Можно использовать как USB flash/HDD, так и DLNA / Plex - подобные сервисы/программы. дополнительный-внешний плеер не обязателен.

Внимание!
На моделях LG 2016 возможны сюрпризы "через раз", 2017-2018 должно идти без сюрпризов )
скриншот  скриншот  скриншот  скриншот  скриншот  

Общее
Полное имя : Hellboy.2019.UHD.BDRemux.2160p.DV.IVA.RUS.ExKinoRay.mp4
Формат : MPEG-4
Профиль формата : Base Media / Version 2
Идентификатор кодека : mp42 (mp42/iso6/isom/msdh/dby1)
Размер файла : 62,7 Гбайт
Продолжительность : 2 ч. 1 м.
Общий поток : 74,2 Мбит/сек
Дата кодирования : UTC 2019-07-17 20:24:54
Дата пометки : UTC 2019-07-17 20:24:54

Видео #1
Идентификатор : 1
Формат : HEVC
Формат/Информация : High Efficiency Video Coding
Профиль формата : Main [email protected]@High
HDR_Format : SMPTE ST 2086, HDR10 compatible
Идентификатор кодека : hev1
Идентификатор кодека/Информация : High Efficiency Video Coding
Продолжительность : 2 ч. 1 м.
Битрейт : 66,1 Мбит/сек
Ширина : 3840 пикселей
Высота : 2160 пикселей
Соотношение сторон : 16:9
Режим частоты кадров : Постоянный
Частота кадров : 23,976 (24000/1001) кадра/сек
Цветовое пространство : YUV
Субдискретизация насыщенности : 4:2:0 (Type 2)
Битовая глубина : 10 бит
Бит/(Пиксели*Кадры) : 0.332
Размер потока : 55,9 Гбайт (89%)
Default : Нет
Дата кодирования : UTC 2019-07-17 20:24:54
Дата пометки : UTC 2019-07-17 20:24:54
Цветовой диапазон : Limited
Основные цвета : BT.2020
Характеристики трансфера : PQ
Коэффициенты матрицы : BT.2020 non-constant
MasteringDisplay_ColorPrimaries : Display P3
MasteringDisplay_Luminance : min: 0.0001 cd/m2, max: 4000 cd/m2
MaxCLL : 3947 cd/m2
MaxFALL : 542 cd/m2
Codec configuration box : hvcC

Видео #2
Идентификатор : 2
Формат : HEVC
Формат/Информация : High Efficiency Video Coding
Профиль формата : Main [email protected]@High
HDR_Format : Dolby Vision, Version 1.0, dvhe.07.06, EL+RPU / SMPTE ST 2086, HDR10 compatible
Идентификатор кодека : dvhe
Идентификатор кодека/Информация : High Efficiency Video Coding with Dolby Vision
Продолжительность : 2 ч. 1 м.
Битрейт : 7653 Кбит/сек
Ширина : 1920 пикселей
Высота : 1080 пикселей
Соотношение сторон : 16:9
Режим частоты кадров : Постоянный
Частота кадров : 23,976 (24000/1001) кадра/сек
Цветовое пространство : YUV
Субдискретизация насыщенности : 4:2:0 (Type 2)
Битовая глубина : 10 бит
Бит/(Пиксели*Кадры) : 0.154
Размер потока : 6,47 Гбайт (10%)
Default : Нет
Дата кодирования : UTC 2019-07-17 20:24:54
Дата пометки : UTC 2019-07-17 20:24:54
Цветовой диапазон : Limited
Основные цвета : BT.2020
Характеристики трансфера : PQ
Коэффициенты матрицы : BT.2020 non-constant
MasteringDisplay_ColorPrimaries : Display P3
MasteringDisplay_Luminance : min: 0.0001 cd/m2, max: 4000 cd/m2
Codec configuration box : hvcC+dvcC

Аудио
Идентификатор : 3
Формат : AC-3
Формат/Информация : Audio Coding 3
Коммерческое название : Dolby Digital
Идентификатор кодека : ac-3
Продолжительность : 2 ч. 1 м.
Вид битрейта : Постоянный
Битрейт : 384 Кбит/сек
Каналы : 6 каналов
ChannelLayout : L R C LFE Ls Rs
Частота : 48,0 КГц
Частота кадров : 31,250 кадров/сек (1536 SPF)
Битовая глубина : 16 бит
Метод сжатия : С потерями
Размер потока : 332 Мбайт (1%)
Язык : Russian
ServiceKind : Complete Main
Default : Нет
Дата кодирования : UTC 2019-07-17 20:24:54
Дата пометки : UTC 2019-07-17 20:24:54

pb.wtf



Скачать Хеллбой через торрент https://a.radikal.ru/a15/1804/77/25bd8085c8d9.png Скачать, смотреть онлайн Хеллбой бесплантно в хорошем качестве Описание: Близится час битвы Хеллбоя с Кровавой королевой, жаждущей отомстить всему человечеству за века в заточении. Оказавшись в ... 8.2 10 5
Торрент: Зарегистрирован [2019-07-18 00:32] · скачан: 44 раз
Статус: √ проверено
Размер: 62.7 GB
Как cкачать? Как скачать Хеллбой через торрент | UTorrent

% Раздел Тема Автор DL S | L
Ultra HD (UHD: 2K, 4K, 8K) — видео сверхвысокой чёткости [ 56.96 GB ] Хеллбой / Hellboy [2019 UHD BDRemux 2160p] [Dolby Vision TV] DUB + MVO [СВ Студия] sheker187 Скачать
1 | 0
Официальные cаундтреки к зарубежным фильмам [ 302 MB ] OST - Хеллбой / Hellboy [Music by Benjamin Wallfisch] 2019 / FLAC / Lossless / Score bober100 Скачать
1 | 0
Фильмы 2019-2020 [DVDrip, WEB-DLRip, HDrip] (DUB, MVO) [ 2.42 GB ] Хеллбой / Hellboy [2019 HDRip-AVC] DUB [] MVO - ExKinoRay Enigma2010 Скачать
4 | 1
Фильмы 2006-2008 [ 2.27 GB ] Хеллбой II: Золотая армия / Hellboy II: The Golden Army [2008 BDRip] - [] Twi7ter Скачать
5 | 0
Фильмы 2006-2008 [ 1.46 GB ] Хеллбой II: Золотая армия / Hellboy II: The Golden Army [2008 BDRip] - [] Twi7ter Скачать
8 | 0
Фильмы 2001-2005 [ 2.18 GB ] Хеллбой: Герой из пекла / Hellboy [2004 BDRip] - [] Twi7ter Скачать
3 | 0
Фильмы 2001-2005 [ 1.46 GB ] Хеллбой: Герой из пекла / Hellboy [2004 BDRip] - [] Twi7ter Скачать
7 | 1

28-11-2019 20:33  

Отключить вcю реклaмy на сайте

06-01-2021 05:52 Хеллбой Скачать торрент  

пожалуйста встаньте на раздачуpb.wtf



    Дорогой пользователь! Огромная просьба, поблагодарите релизера, оцените раздачу и оставьте свои комментарий, если Вы скачали Хеллбой через торрент бесплатно!
    Комментировать посты могут только пользователи прошедшие не сложную регистрацию
    Показать сообщения:    

    Хеллбой через торрент
    Скачать бесплатно Хеллбой
    Хеллбой скачать торрент
    Хеллбой смотреть онлайн
    Cкачать фильм Хеллбой бесплатно
    Хеллбой скачать торрент в хорошем качестве
    Хеллбой смотреть онлайн бесплатно в хорошем качестве


    Вы не можете начинать темы
    Вы не можете отвечать на сообщения
    Вы не можете редактировать свои сообщения
    Вы не можете удалять свои сообщения
    Вы не можете голосовать в опросах
    Вы не можете прикреплять файлы к сообщениям
    Вы можете скачивать файлы