новый адрес
Ссылка на приватное зеркало всего за 1$. Внимание количество ограничено!!!

iTunes

1+1

iTunes

мы

iTunes

1

iTunes

Чернобыль

iTunes

Ральф против интернета

Лицензия

ПШазам

Лицензия

Оно 2

Лицензия

30
pack

Вам бонус

ВАЖНО

!!Акция!!

Alien_RageХит недели

RePack

Resident Evil 21

ИГРА 18+

pack

RePack

jed

!!Акция!!

Alien_Rage

RePack

fifa19

RePack

Assassins Creed: Odyssey

RePack

NEED FOR SPEED™ PAYBACK

3 сезон

9 сезон

Бесстыжие 9 сезон

Все сериалы

все сериалы на PB.wtf

RePack

FAR CRY 5
Ребята, катастрофически не хватает 1900р. для оплаты серверов за Октябрь (всвязи с блокировками трафик упал в 3 раза), 1-2р., выручайте.
  

Игра (Дмитрий Астрахан) [2019, комедия, триллер, WEB-DLRip] [iTunes] pb.wtf

Игра через торрент pb.wtf

Раздают: 8 [ 0.2 KB/s ]
Размер: 1.46 GB | Добавлен: 4 мес. 3 д. назад | Торрент скачан:727 раз
Скачать  

18-07-2019 04:54 Игра Скачать торрент  

Игра Год выпуска: 2019
Страна: Россия
Жанр: комедия, триллер
Продолжительность: 01:43:09
Перевод: Не требуется | iTunes
Субтитры: отсутствуют

Режиссер: Дмитрий Астрахан



В ролях: Виктор Васильев, Анар Халилов, Эльвира Болгова, Наталья Бергер, Олег Васильков, Сергей Чугай, Михаил Зуй, Георгий Малявский, Валерия Кожевникова, Павел Воля

Описание: Молодой бизнесмен Юрий Платонов с лёгкостью достиг всего, о чём можно было мечтать: крупный издательский дом, положение в обществе, красавица-жена и даже личный самолёт. Он успешен во всём, за что ни берётся — так не бывает! Похоже, что его жизнь — кем-то лихо срежиссированный фейк…

Качество: WEB-DLRip
Формат: AVI

Видео: 704x288 (2.40:1), 23.976 fps, XviD build 73 ~1 629 kbps avg
Аудио: 48.0 kHz, AC3 Dolby Digital, 3/2 (L,C,R,l,r) + LFE ch, ~384 kbps
скриншот  скриншот  скриншот  

General
Формат : AVI
Формат/Информация : Audio Video Interleave
Размер файла : 1,46 Гбайт
Продолжительность : 1 ч. 43 м.
Общий поток : 2022 Кбит/сек
Название фильма : Игра_2018_WEB-DLRip
Программа кодирования : VirtualDubMod 1.5.10.3 | (build 2550/release)
Авторское право : порошков

Видео
Идентификатор : 0
Формат : MPEG-4 Visual
Профиль формата : Advanced Simple@L5
Настройки формата : BVOP1 / Custom Matrix
Параметр BVOP формата : 1
Параметр QPel формата : Нет
Параметр GMC формата : Без точки перехода
Параметр матрицы формата : Выборочная
Идентификатор кодека : XVID
Идентификатор кодека/Подсказка : XviD
Продолжительность : 1 ч. 43 м.
Битрейт : 1629 Кбит/сек
Ширина : 704 пикселя
Высота : 288 пикселей
Соотношение сторон : 2,40:1
Частота кадров : 23,976 (24000/1001) кадра/сек
Цветовое пространство : YUV
Субдискретизация насыщенности : 4:2:0
Битовая глубина : 8 бит
Тип развёртки : Прогрессивная
Метод сжатия : С потерями
Бит/(Пиксели*Кадры) : 0.335
Размер потока : 1,17 Гбайт (81%)
Библиотека кодирования : XviD 73

Аудио
Идентификатор : 1
Формат : AC-3
Формат/Информация : Audio Coding 3
Коммерческое название : Dolby Digital
Идентификатор кодека : 2000
Продолжительность : 1 ч. 43 м.
Вид битрейта : Постоянный
Битрейт : 384 Кбит/сек
Каналы : 6 каналов
ChannelLayout : L R C LFE Ls Rs
Частота : 48,0 КГц
Частота кадров : 31,250 кадров/сек (1536 SPF)
Битовая глубина : 16 бит
Метод сжатия : С потерями
Размер потока : 283 Мбайт (19%)
Выравнивание : Разделение по промежуткам
Продолжительность промежутка : 42 мс. (1,00 видеокадр)
Время предзагрузки промежутка : 500 мс.

pb.wtf



Скачать Игра через торрент https://i2.imageban.ru/out/2019/07/18/764bde20989cc21ce3d0d97f20fee581.png Скачать фильм Игра через торрент бесплантно в хорошем качестве Описание: Молодой бизнесмен Юрий Платонов с лёгкостью достиг всего, о чём можно было мечтать: крупный издательский дом, положение в ... 9.5 10 19
Торрент: Зарегистрирован [2019-07-18 04:54] · скачан: 727 раз
Статус: √ проверено
Размер: 1.46 GB
Как cкачать? Как скачать Игра через торрент | qTorrent

% Раздел Тема Автор DL S | L
RPG [ 8.32 GB ] Silverfall: Магия Земли - оригинальная игра плюс дополнение Shmel Скачать
1 | 0
Фильмы 2006-2008 [ 2.19 GB ] Астерикс на Олимпийских играх / Astérix aux jeux olympiques [2008 DVDRip] Anonymous Скачать
1 | 0
RTS (стратегии в реальном времени) [ 4.84 GB ] Антология игр серии Silent Storm [L] Shmel Скачать
2 | 0
S.T.A.L.K.E.R. [ 2.96 GB ] S.T.A.L.K.E.R.: Clear Sky/С.Т.А.Л.К.Е.Р.: Чистое небо + Мод: Ветер перемен URII GERASIMOV Скачать
1 | 0
Иностранные мультфильмы [ 747 MB ] Футурама: Игра Бендера / Futurama: Bender's Game [2008 мультфильм HDRip лицензия] Stone_is_Land Скачать
1 | 0
Детские обучающие игры [ 359 MB ] Маша и Медведь.Подготовка к школе [RePackRUДетская обучающая игра ] Anonymous Скачать
3 | 0
Фантастика, фентези, мистика, ужасы [ 167 MB ] Митчелл Сэнди - Игра/Рука предателя [2010 PDF] IceDevil71 Скачать
1 | 0


>> Переходим по ссылке <<
Автоматически подгузится скрипт который настроит ваш браузер на выигрыш!!
После настройки браузера вероятность выигрыша увеличется в 4.1-4,6 раза.
В течение 6 секунд вам откроется настроенный интерфейс казино, с повышенной вероятностью выигрыша.






Отзывы и комментарии о схеме читаем и пишем здесь: ---> Отзывы и комментарии о схеме

Новые благодарочки в телеграм довольных пользователей:
скриншот   скриншот   скриншот   скриншот   скриншот

18-07-2019 09:17 Игра Скачать торрент  

Фуфелёк однако pb.wtf



19-07-2019 11:31 Игра Скачать торрент  

Шляпаpb.wtf



19-07-2019 21:54 Игра Скачать торрент  

А мне понравился фильм похож на Игру с Дугласом, только снят по нашему и более глубокий смысл.pb.wtf



    Дорогой пользователь! Огромная просьба, поблагодарите релизера, оцените раздачу и оставьте свои комментарий, если Вы скачали Игра через торрент бесплатно! Внесите свою лепту в развитие PiratBit!
    Комментировать посты могут только пользователи прошедшие не сложную регистрацию
    Показать сообщения:    

    Игра через торрент
    Скачать бесплатно Игра
    Игра скачать торрент
    Игра смотреть онлайн
    Cкачать фильм Игра бесплатно
    Игра скачать торрент в хорошем качестве
    Игра смотреть онлайн бесплатно в хорошем качестве


    Вы не можете начинать темы
    Вы не можете отвечать на сообщения
    Вы не можете редактировать свои сообщения
    Вы не можете удалять свои сообщения
    Вы не можете голосовать в опросах
    Вы не можете прикреплять файлы к сообщениям
    Вы можете скачивать файлы