Ссылка на приватное зеркало всего за 1$. Внимание количество ограничено!!!

iTunes

1+1

iTunes

мы

WEB-DL

1

iTunes

Чернобыль

iTunes

Ральф против интернета

Лицензия

ПШазам

Лицензия

Оно 2

Лицензия

30
pack

Вам бонус

ВАЖНО

!!Акция!!

Alien_RageХит недели

RePack

Resident Evil 21

ИГРА 18+

pack

RePack

jed

!!Акция!!

Alien_Rage

RePack

fifa19

RePack

Assassins Creed: Odyssey

RePack

NEED FOR SPEED™ PAYBACK

3 сезон

9 сезон

Бесстыжие 9 сезон

Все сериалы

все сериалы на PB.wtf

RePack

FAR CRY 5
Ребята, катастрофически не хватает 1900р. для оплаты серверов за Октябрь (всвязи с блокировками трафик упал в 3 раза), 1-2р., выручайте.
  

Другой / The Hole in the Ground (Ли Кронин) [2018, Ужасы, BDRip-AVC] [MVO] [HDRezka Studio], AVO [BadBajo] - ExKinoRay pb.wtf

Другой через торрент pb.wtf

Раздают: 7 [ 0 KB/s ]
Размер: 1.54 GB | Добавлен: 4 мес. 26 д. назад | Торрент скачан:154 раза
Скачать  

18-07-2019 05:19 Другой Скачать торрент  

Информация о фильме
Название: Другой
Оригинальное название: The Hole in the Ground
Год выхода: 2018
Жанр: Ужасы
Режиссер: Ли Кронин
В ролях: Шана Керслэйк, Джеймс Куинн Марки, Симона Кирби, Стив Уолл, Оуэн Мэкен, Сара Хэнли, Джеймс Космо, Кати Оутинен,
Беннетт Эндрю, Дэвид Краули

Описание:
Молодая женщина Сара поселяется с сыном Крисом на окраине небольшого городка. Пугающая встреча с таинственным соседом повергает ее в состояние паранойи и недоверия. Она пытается понять, связаны ли происходящие с ее ребенком тревожные изменения со зловещей дырой в чаще леса, примыкающего к ее дому.

rating

Страна: Ирландия
Студия: Savage Productions, Bankside Films, Head Gear Films
Продолжительность: 01:30:10
Перевод: Профессиональный (многоголосый, закадровый) | HDRezka Studio
Авторский одноголосый | Важенин (BadBajo)
Субтитры: Русские (Enigma), английские

БЕЗ КАКОЙ-ЛИБО РЕКЛАМЫ!

Формат: MKV
Качество: BDRip-AVC
Видео: MPEG-4 AVC, 1024x428 (2.40:1), 23.976 fps, 1420 Kbps, 0.135 bit/pixel
Аудио #01: 48 kHz, AC3, 2.0, 192 Kbps | HDRezka | RUS |
Аудио #02: 48 kHz, AC3, 5.1, 384 Kbps | BadBajo | RUS |
Аудио #03: 48 kHz, AC3, 5.1, 448 Kbps | Оригинал | ENG |
General
Unique ID : 234832997196006077326402059804043907049 (0xB0AB30ABE69FBCC79ECB272CBBF80FE9)
Complete name : F:\The.Hole.in.the.Ground.2019.2xRus.BDRip.AVC.ExKinoRay.mkv
Format : Matroska
Format version : Version 2
File size : 1.54 GiB
Duration : 1 h 30 min
Overall bit rate : 2 442 kb/s
Movie name : The Hole in the Ground 2019 from ExKinoRay
Encoded date : UTC 2019-07-18 04:34:46
Writing application : mkvmerge v5.6.0 ('Kenya Kane') built on May 27 2012 16:44:04
Writing library : libebml v1.2.3 + libmatroska v1.3.0

Video
ID : 1
Format : AVC
Format/Info : Advanced Video Codec
Format profile : High@L4.1
Format settings, CABAC : Yes
Format settings, ReFrames : 11 frames
Codec ID : V_MPEG4/ISO/AVC
Duration : 1 h 30 min
Bit rate : 1 420 kb/s
Width : 1 024 pixels
Height : 428 pixels
Display aspect ratio : 2.40:1
Frame rate mode : Constant
Frame rate : 23.976 (23976/1000) FPS
Color space : YUV
Chroma subsampling : 4:2:0
Bit depth : 8 bits
Scan type : Progressive
Bits/(Pixel*Frame) : 0.135
Stream size : 883 MiB (56%)
Title : Enigma
Writing library : x264 core 152 r2851 ba24899
Encoding settings : cabac=1 / ref=11 / deblock=1:-2:-2 / analyse=0x3:0x113 / me=umh / subme=10 / psy=1 / psy_rd=1.05:0.15 / mixed_ref=1 / me_range=32 / chroma_me=1 / trellis=2 / 8x8dct=1 / cqm=0 / deadzone=21,11 / fast_pskip=0 / chroma_qp_offset=-3 / threads=12 / lookahead_threads=3 / sliced_threads=0 / nr=0 / decimate=0 / interlaced=0 / bluray_compat=0 / constrained_intra=0 / bframes=10 / b_pyramid=2 / b_adapt=2 / b_bias=0 / direct=3 / weightb=1 / open_gop=0 / weightp=2 / keyint=240 / keyint_min=23 / scenecut=40 / intra_refresh=0 / rc=2pass / mbtree=0 / bitrate=1420 / ratetol=1.0 / qcomp=0.60 / qpmin=0 / qpmax=51 / qpstep=4 / cplxblur=20.0 / qblur=0.5 / ip_ratio=1.40 / pb_ratio=1.30 / aq=3:0.80
Language : English
Default : Yes
Forced : No
Color range : Limited
Color primaries : BT.709
Transfer characteristics : BT.709
Matrix coefficients : BT.709

Audio #1
ID : 2
Format : AC-3
Format/Info : Audio Coding 3
Mode extension : CM (complete main)
Format settings, Endianness : Big
Codec ID : A_AC3
Duration : 1 h 30 min
Bit rate mode : Constant
Bit rate : 192 kb/s
Channel(s) : 2 channels
Channel positions : Front: L R
Sampling rate : 48.0 kHz
Frame rate : 31.250 FPS (1536 spf)
Compression mode : Lossy
Stream size : 124 MiB (8%)
Title : MVO (HDRezka Studio)
Language : Russian
Default : Yes
Forced : No

Audio #2
ID : 3
Format : AC-3
Format/Info : Audio Coding 3
Mode extension : CM (complete main)
Format settings, Endianness : Big
Codec ID : A_AC3
Duration : 1 h 30 min
Bit rate mode : Constant
Bit rate : 384 kb/s
Channel(s) : 6 channels
Channel positions : Front: L C R, Side: L R, LFE
Sampling rate : 48.0 kHz
Frame rate : 31.250 FPS (1536 spf)
Compression mode : Lossy
Stream size : 248 MiB (16%)
Title : AVO (BadBajo)
Language : Russian
Default : No
Forced : No

Audio #3
ID : 4
Format : AC-3
Format/Info : Audio Coding 3
Mode extension : CM (complete main)
Format settings, Endianness : Big
Codec ID : A_AC3
Duration : 1 h 30 min
Bit rate mode : Constant
Bit rate : 448 kb/s
Channel(s) : 6 channels
Channel positions : Front: L C R, Side: L R, LFE
Sampling rate : 48.0 kHz
Frame rate : 31.250 FPS (1536 spf)
Compression mode : Lossy
Stream size : 289 MiB (18%)
Language : English
Default : No
Forced : No

Text #1
ID : 5
Format : UTF-8
Codec ID : S_TEXT/UTF8
Codec ID/Info : UTF-8 Plain Text
Title : Full (Enigma)
Language : Russian
Default : No
Forced : No

Text #2
ID : 6
Format : UTF-8
Codec ID : S_TEXT/UTF8
Codec ID/Info : UTF-8 Plain Text
Title : Full
Language : English
Default : No
Forced : No

Menu
00:00:00.000 : en:Chapter 00
00:06:00.943 : en:Chapter 01
00:13:43.280 : en:Chapter 02
00:22:26.636 : en:Chapter 03
00:31:40.231 : en:Chapter 04
00:39:55.184 : en:Chapter 05
00:48:10.387 : en:Chapter 06
00:55:02.966 : en:Chapter 07
01:02:13.521 : en:Chapter 08
01:09:18.946 : en:Chapter 09
01:16:29.960 : en:Chapter 10
01:22:10.216 : en:Chapter 11
01:30:06.234 : en:Chapter 12


Релиз от:

Автор релиза: pb.wtf



Скачать Другой через торрент https://c.radikal.ru/c01/1903/b9/72fe5b34aac1.jpg Скачать фильм Другой через торрент бесплантно в хорошем качестве Описание:Молодая женщина Сара поселяется с сыном Крисом на окраине небольшого городка. Пугающая встреча с таинственным соседом повергает ее ... 7.6 10 9
Info! Золотая раздача, скачанное не засчитывается.
Торрент: Зарегистрирован [2019-07-18 05:19] · скачан: 154 раз
Статус: √ проверено
Размер: 1.54 GB
Как cкачать? Как скачать Другой через торрент | qTorrent

% Раздел Тема Автор DL S | L
Фильмы 2018 [DVDrip, WEB-DLRip, HDrip] (DUB, MVO) [ 1.42 GB ] Другой / The Hole in the Ground [2018 BDRip-AVC ] Dub - ExKinoRay Enigma2010 Скачать
8 | 0
T Фильмы 2018 [DVDrip, WEB-DLRip, HDrip] (DUB, MVO) [ 1.33 GB ] Другой / The Hole in the Ground [2018 WEB-DLRip-AVC] [MVO] [HDRezka Studio] - ExKinoRay Enigma2010 Скачать
3 | 0

28-11-2019 20:33  

Отключить всю рекламу на сайте

03-08-2019 21:07 Другой Скачать торрент  

фигняpb.wtf



    Дорогой пользователь! Огромная просьба, поблагодарите релизера, оцените раздачу и оставьте свои комментарий, если Вы скачали Другой через торрент бесплатно! Внесите свою лепту в развитие PiratBit!
    Комментировать посты могут только пользователи прошедшие не сложную регистрацию
    Показать сообщения:    

    Другой через торрент
    Скачать бесплатно Другой
    Другой скачать торрент
    Другой смотреть онлайн
    Cкачать фильм Другой бесплатно
    Другой скачать торрент в хорошем качестве
    Другой смотреть онлайн бесплатно в хорошем качестве


    Вы не можете начинать темы
    Вы не можете отвечать на сообщения
    Вы не можете редактировать свои сообщения
    Вы не можете удалять свои сообщения
    Вы не можете голосовать в опросах
    Вы не можете прикреплять файлы к сообщениям
    Вы можете скачивать файлы