Ссылка на приватное зеркало нашего сайта всего за 1$. Внимание количество ограничено!!!

2 сезон

iTunes

1 сезон

1

2 сезон

2 сезон

iTunes

1 сезон

RePack

30

Ultimate

ВАЖНО

ИГРА 18+

pack

RePack

MK11
pack

Забери бонус

RePack

jed

!!Акция!!

Alien_Rage

RePack

fifa19

RePack

Assassins Creed: Odyssey

RePack

NEED FOR SPEED™ PAYBACK

4 сезон

9 сезон

Бесстыжие 9 сезон

Все сериалы

все сериалы на PB.wtf

RePack

FAR CRY 5
  

Новая жизнь Аманды / Amanda (Микаэль Херс) [2018, Драма, WEB-DL 1080p] MVO [Tunes] pb.wtf

Новая жизнь Аманды через торрент pb.wtf

Размер: 4.18 GB | Добавлен: 1 год 4 мес. назад | Торрент скачан:37 раз
Скачать  

18-07-2019 11:57 Новая жизнь Аманды Скачать торрент  

Новая жизнь Аманды / Amanda
Год выпуска: 2018
Страна: Франция
Жанр: Драма
Продолжительность: 01:46:39
Перевод: Профессиональный многоголосый | iTunes
Субтитры: отсутствуют

Режиссер: Микаэль Херс

rating

В ролях: Венсан Лакост, Изаура Мюльтрие, Стэйси Мартин, Офелия Колб, Марианн Басле, Джонатан Коэн, Набиха Аккари, Грета Скакки, Бакари Сангаре

Описание: Современный Париж. Давиду чуть больше двадцати. Он живет настоящим, легко и свободно. Одинокий мечтатель, полный надежд, Давид влюбляется в случайную знакомую Лену. Но все в его жизни резко меняется после внезапной гибели старшей сестры. Теперь Давиду придется принять решение, сможет ли он нести ответственность за свою семилетнюю племянницу Аманду...

Качество: WEB-DL 1080p
Формат: MKV

Видео: 1920x1038 (1.85:1), 24.000 fps, MPEG-4 AVC ~5 113 kbps avg
Аудио: 48.0 kHz, AC3 Dolby Digital, 3/2 (L,C,R,l,r) + LFE ch, ~384 kbps
скриншот  скриншот  скриншот  

General
Уникальный идентификатор : 214386339869237579499586953283521845269 (0xA1494EA22E258521BB1DBE00ECDD9815)
Полное имя : AMANDA_2018_WEB_DL_1080p-BLUEBIRD.mkv
Формат : Matroska
Версия формата : Version 4 / Version 2
Размер файла : 4.18 GiB
Продолжительность : 1 h 46 min
Общий поток : 5 609 kb/s
Название фильма : AMANDA_2018_WEB_DL_1080p-BLUEBIRD
Дата кодирования : UTC 2019-07-03 18:21:48
Программа кодирования : mkvmerge v6.9.1 ('Blue Panther') 32bit built on Apr 18 2014 18:15:44
Библиотека кодирования : libebml v1.3.0 + libmatroska v1.4.1
Обложка : Yes

Video
Идентификатор : 1
Формат : AVC
Формат/Информация : Advanced Video Codec
Профиль формата : High@L4
Настройки формата : CABAC / 4 Ref Frames
Параметр CABAC формата : Yes
Параметр RefFrames формата : 4 frames
Идентификатор кодека : V_MPEG4/ISO/AVC
Продолжительность : 1 h 46 min
Битрейт : 5 113 kb/s
Ширина : 1 920 pixels
Высота : 1 038 pixels
Соотношение сторон : 1.85:1
Режим частоты кадров : Constant
Частота кадров : 24.000 FPS
Цветовое пространство : YUV
Субдискретизация насыщенности : 4:2:0
Битовая глубина : 8 bits
Тип развёртки : Progressive
Бит/(Пиксели*Кадры) : 0.107
Размер потока : 3.81 GiB (91%)
Заголовок : AMANDA_2018_WEB_DL_1080p-BLUEBIRD
Язык : English
Default : Yes
Forced : No
Цветовой диапазон : Limited
Основные цвета : BT.709
Характеристики трансфера : BT.709
Коэффициенты матрицы : BT.709

Audio
Идентификатор : 2
Формат : AC-3
Формат/Информация : Audio Coding 3
Идентификатор кодека : A_AC3
Продолжительность : 1 h 46 min
Вид битрейта : Constant
Битрейт : 384 kb/s
Каналы : 6 channels
Расположение каналов : Front: L C R, Side: L R, LFE
Частота : 48.0 kHz
Частота кадров : 31.250 FPS (1536 SPF)
Битовая глубина : 16 bits
Метод сжатия : Lossy
Размер потока : 293 MiB (7%)
Заголовок : [MVO] DD 5.1 @ 384 kbps (iTunes)
Язык : Russian
Default : Yes
Forced : No

Menu
00:00:00.000 : en:Глава 1
00:06:28.416 : en:Глава 2
00:14:37.124 : en:Глава 3
00:19:57.374 : en:Глава 4
00:25:58.124 : en:Глава 5
00:33:36.207 : en:Глава 6
00:40:16.332 : en:Глава 7
00:48:17.540 : en:Глава 8
00:56:53.956 : en:Глава 9
01:03:20.539 : en:Глава 10
01:10:31.414 : en:Глава 11
01:16:25.455 : en:Глава 12
01:24:50.080 : en:Глава 13
01:34:37.996 : en:Глава 14

pb.wtf



Скачать Новая жизнь Аманды через торрент http://c.radikal.ru/c28/1907/d2/86f821df77ee.jpg Скачать фильм Новая жизнь Аманды через торрент бесплантно в хорошем качестве Описание: Современный Париж. Давиду чуть больше двадцати. Он живет настоящим, легко и свободно. Одинокий мечтатель, полный надежд, Давид ... 8.3 10 4
Торрент: Зарегистрирован [2019-07-18 11:57] · скачан: 37 раз
Статус: √ проверено
Размер: 4.18 GB
Как cкачать? Как скачать Новая жизнь Аманды через торрент | qTorrent

% Раздел Тема Автор DL S | L
Фильмы 2018 [DVDrip, WEB-DLRip, HDrip] (DUB, MVO) [ 1.46 GB ] Новая жизнь Аманды / Amanda [2018 WEB-DLRip] MVO [Tunes] bober100 Скачать
1 | 0

28-11-2019 20:33  

Отключить всю рекламу на сайте

    Дорогой пользователь! Огромная просьба, поблагодарите релизера, оцените раздачу и оставьте свои комментарий, если Вы скачали Новая жизнь Аманды через торрент бесплатно! Внесите свою лепту в развитие PiratBit!
    Комментировать посты могут только пользователи прошедшие не сложную регистрацию
    Показать сообщения:    

    Новая жизнь Аманды через торрент
    Скачать бесплатно Новая жизнь Аманды
    Новая жизнь Аманды скачать торрент
    Новая жизнь Аманды смотреть онлайн
    Cкачать фильм Новая жизнь Аманды бесплатно
    Новая жизнь Аманды скачать торрент в хорошем качестве
    Новая жизнь Аманды смотреть онлайн бесплатно в хорошем качестве


    Вы не можете начинать темы
    Вы не можете отвечать на сообщения
    Вы не можете редактировать свои сообщения
    Вы не можете удалять свои сообщения
    Вы не можете голосовать в опросах
    Вы не можете прикреплять файлы к сообщениям
    Вы можете скачивать файлы