Ссылка на приватное зеркало нашего сайта всего за 1$. Внимание количество ограничено!!!

2 сезон

iTunes

1 сезон

1

2 сезон

2 сезон

iTunes

1 сезон

RePack

30

Новинка

ВАЖНО

ИГРА 18+

pack

RePack

MK11
pack

Забери бонус

RePack

jed

!!Акция!!

Alien_Rage

RePack

fifa19

RePack

Assassins Creed: Odyssey

RePack

NEED FOR SPEED™ PAYBACK

4 сезон

9 сезон

Бесстыжие 9 сезон

Все сериалы

все сериалы на PB.wtf

RePack

FAR CRY 5
  

Сладкая горечь / Sweetbitter / Сезон: 2 / Серии: 1-8 из 8 (Августин Фриззелл, Гита Патель, Адам Бернштейн) [2019, драма, WEB-DL 1080p] [MVO] (TVShows) pb.wtf

Сладкая горечь через торрент pb.wtf

Размер: 16.55 GB | Добавлен: 1 год 3 мес. назад | Торрент скачан:3 раза
Скачать  

18-07-2019 17:28 Сладкая горечь Скачать торрент  

Сладкая горечь | Sweetbitter
Год выпуска: 2019
Страна: США
Жанр: драма
Продолжительность: ~ 00:28:00

Перевод: Профессиональный (многоголосый закадровый) -TVShows

Режиссёр: Августин Фриззелл, Гита Патель, Адам Бернштейн

В ролях: Джимми Саито, Гэбриел Гутьеррез, Пол Тавчиньски, Элла Пернелл, Том Стёрридж, Эван Йоникит, Иден Эпштейн, Пол Спаркс и др.
Описание: В центре истории оказывается молодая девушка Тесс, которая, по приезду в Нью-Йорк, получает работу в одном из самых престижных ресторанов. Секс, наркотики и алкоголь мгновенно затягивают девушку в безумный водоворот...


Качество: WEB-DL 1080p
Формат: MKV
Видео: MPEG-4 AVC, ~ 9464 Кбит/с, 1920x1080
Аудио Rus: AC3, 48.0 KHz, 6 channels, 384 kbps
Аудио Eng: E-AC3, 48.0 KHz, 6 channels, 640 kbps
Субтитры: Английские

Реклама отсутствует
General
Unique ID : 38703651827592224225501240659736177573 (0x1D1E0D5D0EA2D85882412E8EE172ABA5)
Complete name : E:\Sweetbitter.S02.1080p.TVShows\Sweetbitter.S02E01.1080p.TVShows.mkv
Format : Matroska
Format version : Version 4 / Version 2
File size : 2.12 GiB
Duration : 28 min 41 s
Overall bit rate : 10.6 Mb/s
Encoded date : UTC 2019-07-18 07:04:26
Writing application : mkvmerge v33.1.0 ('Primrose') 64-bit
Writing library : libebml v1.3.7 + libmatroska v1.5.0

Video
ID : 1
Format : AVC
Format/Info : Advanced Video Codec
Format profile : High@L4
Format settings : CABAC / 4 Ref Frames
Format settings, CABAC : Yes
Format settings, RefFrames : 4 frames
Codec ID : V_MPEG4/ISO/AVC
Duration : 28 min 41 s
Bit rate mode : Constant
Bit rate : 9 257 kb/s
Nominal bit rate : 10 000 kb/s
Width : 1 920 pixels
Height : 1 080 pixels
Display aspect ratio : 16:9
Frame rate mode : Constant
Frame rate : 23.976 (24000/1001) FPS
Color space : YUV
Chroma subsampling : 4:2:0
Bit depth : 8 bits
Scan type : Progressive
Bits/(Pixel*Frame) : 0.186
Stream size : 1.86 GiB (88%)
Default : Yes
Forced : No
Color range : Limited
Color primaries : BT.709
Transfer characteristics : BT.709
Matrix coefficients : BT.709

Audio #1
ID : 2
Format : AC-3
Format/Info : Audio Coding 3
Format settings, Endianness : Big
Codec ID : A_AC3
Duration : 28 min 41 s
Bit rate mode : Constant
Bit rate : 448 kb/s
Channel(s) : 6 channels
Channel positions : Front: L C R, Side: L R, LFE
Sampling rate : 48.0 kHz
Frame rate : 31.250 FPS (1536 SPF)
Bit depth : 16 bits
Compression mode : Lossy
Stream size : 92.0 MiB (4%)
Title : TVShows
Language : Russian
Service kind : Complete Main
Default : Yes
Forced : Yes

Audio #2
ID : 3
Format : E-AC-3
Format/Info : Enhanced Audio Coding 3
Format settings, Endianness : Big
Codec ID : A_EAC3
Duration : 28 min 41 s
Bit rate mode : Constant
Bit rate : 640 kb/s
Channel(s) : 6 channels
Channel positions : Front: L C R, Side: L R, LFE
Sampling rate : 48.0 kHz
Frame rate : 187.500 FPS (256 SPF)
Compression mode : Lossy
Stream size : 131 MiB (6%)
Title : Original
Language : English
Service kind : Complete Main
Default : No
Forced : No

Text
ID : 4
Format : UTF-8
Codec ID : S_TEXT/UTF8
Codec ID/Info : UTF-8 Plain Text
Title : English
Language : English
Default : No
Forced : No
скриншот  скриншот  скриншот  скриншот  
Внимание! Раздача ведётся путём добавления новых серий; при каждом добавлении создаётся новый торрент. Чтобы начать докачку новой серии, пользователям необходимо сделать следующее:
(1) остановить скачивание,
(2) удалить старый торрент у себя из клиента (старые серии удалять не надо),
(3) скачать новый торрент и запустить его у себя в клиенте вместо старого, при этом указать клиенту путь в старую папку куда и должно происходить скачивание новых серий.

Ваш клиент при этом должен произвести хеширование (проверку) старой папки (если не производит сам - помогите ему сделать это), и будет докачивать только те серии которых у вас ещё нет. Старые серии при этом не удаляются, а продолжают раздаваться!

Eсли вы уже удалили старые серии, то предотвратить повторную закачку старых серий можно, отжав галочку в соответствующих местах при запуске нового торрента. По возможности, желательно не удалять старые серии как можно дольше чтобы релизёр не столько продолжал раздавать старые серии, а смог сконцентрироваться на новых.
pb.wtf



Скачать Сладкая горечь через торрент https://i109.fastpic.ru/big/2019/0307/36/c226f769d3576d14c9ece0534f868a36.png Скачать фильм Сладкая горечь через торрент бесплантно в хорошем качестве Описание: В центре истории оказывается молодая девушка Тесс, которая, по приезду в Нью-Йорк, получает работу в одном из самых престижных ... 10 10 1
Торрент: Зарегистрирован [2019-08-22 08:26] · скачан: 3 раз
Статус: √ проверено
Размер: 16.55 GB
Как cкачать? Как скачать Сладкая горечь через торрент | qTorrent

% Раздел Тема Автор DL S | L
Зарубежные сериалы [ 9.09 GB ] Сладкая горечь / Sweetbitter / Сезон: 2 / Серии: 1-8 из 8 [2019 WEB-DL 720p] [MVO] killermax2013 Скачать
1 | 0
Зарубежные сериалы [ 8.27 GB ] Сладкая горечь / Sweetbitter / Сезон: 2 / Серии: 1-8 из 8 [2019 WEBRip 720p] [DVO] killermax2013 Скачать
1 | 0

28-11-2019 20:33  

Отключить всю рекламу на сайте

    Дорогой пользователь! Огромная просьба, поблагодарите релизера, оцените раздачу и оставьте свои комментарий, если Вы скачали Сладкая горечь через торрент бесплатно! Внесите свою лепту в развитие PiratBit!
    Комментировать посты могут только пользователи прошедшие не сложную регистрацию
    Показать сообщения:    

    Сладкая горечь через торрент
    Скачать бесплатно Сладкая горечь
    Сладкая горечь скачать торрент
    Сладкая горечь смотреть онлайн
    Cкачать фильм Сладкая горечь бесплатно
    Сладкая горечь скачать торрент в хорошем качестве
    Сладкая горечь смотреть онлайн бесплатно в хорошем качестве


    Вы не можете начинать темы
    Вы не можете отвечать на сообщения
    Вы не можете редактировать свои сообщения
    Вы не можете удалять свои сообщения
    Вы не можете голосовать в опросах
    Вы не можете прикреплять файлы к сообщениям
    Вы можете скачивать файлы