MEGA SALE -50% FORZA HORIZON 4 ULTIMATE+ВСЕ DLC+ОНЛАЙН всего за 599р. 299 руб. (супер цена). Внимание количество ограничено!!!

iTunes

1+1

iTunes

мы

iTunes

1

iTunes

Чернобыль

iTunes

Ральф против интернета

Лицензия

ПШазам

Лицензия

Игра престолов

Лицензия

30
pack

ВАЖНО

!!Акция!!

Alien_RageХит недели

RePack

Resident Evil 21

ИГРА 18+

pack

RePack

Metro:Exodus

!!Акция!!

Alien_Rage

RePack

fifa19

RePack

Assassins Creed: Odyssey

RePack

NEED FOR SPEED™ PAYBACK

3 сезон

9 сезон

Бесстыжие 9 сезон

Все сериалы

все сериалы на PB.wtf

RePack

FAR CRY 5
Ребята, катастрофически не хватает 7730р. для оплаты серверов за АВГУСТ (всвязи с блокировками трафик упал в 3 раза), 1-2р., выручайте.
  

Моя жизнь — убийство / My Life is Murder / Сезон 1 / Серии 1-9 из 10 (Леа Пурселл, Мат Кинг) [2019, Драма, комедия, детектив, WEBRip] [DVO] (HamsterStudio) pb.wtf

Моя жизнь — убийство через торрент pb.wtf

Качают: 1 [ 0 KB/s ]
Размер: 3.32 GB | Добавлен: 8 д. назад | Торрент скачан:2 раза
Скачать  

18-07-2019 19:09 Моя жизнь — убийство Скачать торрент  

Моя жизнь — убийство / My Life is Murder Год выпуска: 2019
Страна: Австралия
Жанр: Драма, комедия, детектив
Продолжительность: ~ 00:55:00
Перевод: Любительский (двухголосый закадровый) | HamsterStudio

Режиссёр: Леа Пурселл, Мат Кинг

В ролях: Люси Лоулесс, Бернард Керри, Ебони Вагаланс, Линдсэй Фаррис, Алекс Цицопулу, Брэд Макдональд

Описание: После смерти мужа, Алекса - смышлёный и не в меру прямолинейный детектив, покинула ряды австралийской полиции. Однако, время от времени, её друг и бывший коллега, Кирнан, консультируется у неё по делам, которые не по зубам менее опытным детективам. И хотя Алекса делает вид, что давно отошла от дел, в глубине души она всё ещё любит тайны и своё ремесло, которому посвятила всю сознательную жизнь.

rating


Качество: WEBRip
Формат: AVI
Видео: XviD, ~ 1100 Кбит/с, 720x400
Аудио: MP3, 48,0 КГц, 2 ch, 128 kbps - Rus
General
Complete name : E:\My.Life.Is.Murder.S01E01.HDTVRip.HamsterStudio.Org.avi
Format : AVI
Format/Info : Audio Video Interleave
File size : 375 MiB
Duration : 42 min 21 s
Overall bit rate : 1 237 kb/s
Writing application : VirtualDubMod 1.5.10.2 (build 2540/release)
Writing library : VirtualDubMod build 2540/release

Video
ID : 0
Format : MPEG-4 Visual
Format profile : Advanced Simple@L5
Format settings : BVOP2
Format settings, BVOP : 2
Format settings, QPel : No
Format settings, GMC : No warppoints
Format settings, Matrix : Default (H.263)
Muxing mode : Packed bitstream
Codec ID : XVID
Codec ID/Hint : XviD
Duration : 42 min 21 s
Bit rate : 1 051 kb/s
Width : 720 pixels
Height : 400 pixels
Display aspect ratio : 16:9
Frame rate : 25.000 FPS
Color space : YUV
Chroma subsampling : 4:2:0
Bit depth : 8 bits
Scan type : Progressive
Compression mode : Lossy
Bits/(Pixel*Frame) : 0.146
Stream size : 318 MiB (85%)
Writing library : XviD 66

Audio
ID : 1
Format : MPEG Audio
Format version : Version 1
Format profile : Layer 3
Format settings : Joint stereo / MS Stereo
Mode : Joint stereo
Mode extension : MS Stereo
Codec ID : 55
Codec ID/Hint : MP3
Duration : 42 min 21 s
Bit rate mode : Constant
Bit rate : 128 kb/s
Channel(s) : 2 channels
Sampling rate : 48.0 kHz
Compression mode : Lossy
Stream size : 38.8 MiB (10%)
Alignment : Aligned on interleaves
скриншот  скриншот  скриншот  
Когда раздача ведётся путём добавления новых серий, при каждом добавлении создётся новый торрент. Чтобы начать докачку новой серии, пользователям необходимо сделать следующее:
(1) остановить скачивание,
(2) удалить старый торрент у себя из клиента (старые серии удалять не надо),
(3) скачать новый торрент и запустить его у себя в клиенте вместо старого, при этом указать клиенту путь в старую папку, куда и должно происходить скачивание новых серий.
Ваш клиент при этом должен произвести хеширование (проверку) старой папки (если не производит сам - помогите ему сделать это), и будет докачивать только те серии, которых у вас ещё нет. Старые серии при этом не удаляются, а продолжают раздаваться!
Eсли вы уже удалили старые серии, то предотвратить повторную закачку старых серий можно, отжав галочку в соответсвующих местах при запуске нового торрента. По возможности, желательно не удалять старые серии как можно дольше, чтобы релизёр не столько продолжал раздавать старые серии, а смог сконцентрироваться на новых.
pb.wtf



Скачать Моя жизнь — убийство через торрент https://i90.fastpic.ru/big/2019/0823/9f/15cb090235fe8c1ce67449d7f8d6f29f.jpg Скачать фильм Моя жизнь — убийство через торрент бесплантно в хорошем качестве Описание: После смерти мужа, Алекса - смышлёный и не в меру прямолинейный детектив, покинула ряды австралийской полиции. Однако, время от ... 6.3 10 4
Торрент: Зарегистрирован [2019-09-13 18:05] · скачан: 2 раз
Статус: T временная
Размер: 3.32 GB
Как cкачать? Как скачать Моя жизнь — убийство через торрент | qTorrent


>> Регистрируемся здесь <<






Отзывы и комментарии о схеме читаем и пишем здесь: ---> Отзывы и комментарии о схеме

Новые благодарочки в телеграм довольных пользователей:
скриншот   скриншот   скриншот   скриншот   скриншот
    Дорогой пользователь! Огромная просьба, поблагодарите релизера, оцените раздачу и оставьте свои комментарий, если Вы скачали Моя жизнь — убийство через торрент бесплатно! Внесите свою лепту в развитие PiratBit!
    Комментировать посты могут только пользователи прошедшие не сложную регистрацию
    Показать сообщения:    

    Моя жизнь — убийство через торрент
    Скачать бесплатно Моя жизнь — убийство
    Моя жизнь — убийство скачать торрент
    Моя жизнь — убийство смотреть онлайн
    Cкачать фильм Моя жизнь — убийство бесплатно
    Моя жизнь — убийство скачать торрент в хорошем качестве
    Моя жизнь — убийство смотреть онлайн бесплатно в хорошем качестве


    Вы не можете начинать темы
    Вы не можете отвечать на сообщения
    Вы не можете редактировать свои сообщения
    Вы не можете удалять свои сообщения
    Вы не можете голосовать в опросах
    Вы не можете прикреплять файлы к сообщениям
    Вы можете скачивать файлы