Ссылка на приватное зеркало нашего сайта всего за 1$. Внимание количество ограничено!!!

2 сезон

iTunes

1 сезон

1

2 сезон

2 сезон

iTunes

1 сезон

RePack

30

Ultimate

ВАЖНО

ИГРА 18+

pack

RePack

MK11
pack

Забери бонус

RePack

jed

!!Акция!!

Alien_Rage

RePack

fifa19

RePack

Assassins Creed: Odyssey

RePack

NEED FOR SPEED™ PAYBACK

4 сезон

9 сезон

Бесстыжие 9 сезон

Все сериалы

все сериалы на PB.wtf

RePack

FAR CRY 5
  

Ложный огонь / Foxfire (Аннетт Хэйвуд-Картер) [1996 г., Драма, экранизация, WEB-DL 1080p от KORSAR][2xMVO + AVO] pb.wtf

Ложный огонь через торрент pb.wtf

Размер: 10.39 GB | Добавлен: 1 год 4 мес. назад | Торрент скачан:11 раз
Скачать  

18-07-2019 22:19 Ложный огонь Скачать торрент  

Название: Ложный огонь
Оригинальное название: Foxfire
Год выпуска: 1996
Жанр: Драма, экранизация

Режиссер: Аннетт Хэйвуд-Картер
В ролях: Анджелина Джоли, Хеди Берресс, Дженни Льюис, Дженни Шимицу, Сара Розенберг, Питер Фачинелли, Дэш Майок, Мишель Брукхерст, Элден Хенсон, Кэти Мориарти, Ричард Беймер, Фрэн Беннетт, Джон Диль, Крис Малки, Джей Аковоне

О фильме: Фильм поставленн по повести Джойс Кэрол Оуэтс.
Не выдержав постоянных приставаний учителя биологии, несколько девчонок жестоко избивают педагога-извращенца. Инициатором мести становится самая независимая и красивая девушка по кличке Легз, вокруг которой и собирается группа страдающих от парней девочек, находящихся в том возрасте, когда подобные обстоятельства вполне могут изменить сексуальную ориентацию. Юных бунтарок отстраняют от занятий. И с этого момента героини начинают непримиримую "битву" со всем мужским населением. Они дают отпор одноклассникам, когда те пытаются изнасиловать одну из них. Затем угоняют машину негодяев, а далее "война полов" идет по нарастающей, вплоть до вмешательства полиции.

rating

Продолжительность: 01:41:53
Выпущено: США, Chestnut Hill Productions, Red Mullet Productions, Rysher Entertainment
Перевод: Профессиональный многоголосый, авторский

Качество: WEB-DL 1080p
Формат: MKV
Видео: MPEG-4 AVC, 13,4 Мбит/сек, 1920x1080, 23,976 кадра/сек
Аудио #1: AC3, 2 ch, 256 Кбит/сек | Русский, профессиональный (многоголосый закадровый) R5
Аудио #2: AC3, 2 ch, 192 Кбит/сек | Русский, профессиональный (многоголосый закадровый) Paramount Channel
Аудио #3: AC3, 2 ch, 192 Кбит/сек | Русский, авторский (одноголосый закадровый) Пётр Карцев
Аудио #4: EAC3, 2 ch, 224 Кбит/сек | Английский, оригинал
Субтитры: Русские, английские
Навигация по главам: Есть

Релиз от:
Общее
Уникальный идентификатор : 239657707557397218726451901440777177266 (0xB44C654207DE3387A8659983D1DAC8B2)
Полное имя : Ложный.огонь.1996.WEB-DL.1080p.mkv
Формат : Matroska
Версия формата : Version 2
Размер файла : 10,4 Гбайт
Продолжительность : 1 ч. 41 м.
Режим общего битрейта : Переменный
Общий поток : 14,6 Мбит/сек
Дата кодирования : UTC 2018-06-01 05:01:22
Программа кодирования : mkvmerge v5.8.0 ('No Sleep / Pillow') built on Sep 2 2012 15:37:04
Библиотека кодирования : libebml v1.2.3 + libmatroska v1.3.0

Видео
Идентификатор : 1
Формат : AVC
Формат/Информация : Advanced Video Codec
Профиль формата : High@L4
Настройки формата : CABAC / 4 Ref Frames
Параметр CABAC формата : Да
Параметр RefFrames формата : 4 кадра
Идентификатор кодека : V_MPEG4/ISO/AVC
Продолжительность : 1 ч. 41 м.
Вид битрейта : Переменный
Битрейт : 13,4 Мбит/сек
Максимальный битрейт : 15,0 Мбит/сек
Ширина : 1920 пикселей
Высота : 1080 пикселей
Соотношение сторон : 16:9
Режим частоты кадров : Постоянный
Частота кадров : 23,976 (24000/1001) кадра/сек
Цветовое пространство : YUV
Субдискретизация насыщенности : 4:2:0
Битовая глубина : 8 бит
Тип развёртки : Прогрессивная
Бит/(Пиксели*Кадры) : 0.270
Размер потока : 9,57 Гбайт (92%)
Язык : English
Default : Да
Forced : Нет
Цветовой диапазон : Limited
Основные цвета : BT.709
Характеристики трансфера : BT.709
Коэффициенты матрицы : BT.709

Аудио #1
Идентификатор : 2
Формат : AC-3
Формат/Информация : Audio Coding 3
Идентификатор кодека : A_AC3
Продолжительность : 1 ч. 41 м.
Вид битрейта : Постоянный
Битрейт : 256 Кбит/сек
Каналы : 2 канала
Расположение каналов : Front: L R
Частота : 48,0 КГц
Частота кадров : 31,250 кадров/сек (1536 SPF)
Битовая глубина : 16 бит
Метод сжатия : С потерями
Размер потока : 187 Мбайт (2%)
Заголовок : MVO | R5
Язык : Russian
По умолчанию : Да
Принудительно : Нет

Аудио #2
Идентификатор : 3
Формат : AC-3
Формат/Информация : Audio Coding 3
Идентификатор кодека : A_AC3
Продолжительность : 1 ч. 41 м.
Вид битрейта : Постоянный
Битрейт : 192 Кбит/сек
Каналы : 2 канала
Расположение каналов : Front: L R
Частота : 48,0 КГц
Частота кадров : 31,250 кадров/сек (1536 SPF)
Битовая глубина : 16 бит
Метод сжатия : С потерями
Размер потока : 140 Мбайт (1%)
Заголовок : MVO | Paramount Channel
Язык : Russian
По умолчанию : Нет
Принудительно : Нет

Аудио #3
Идентификатор : 4
Формат : AC-3
Формат/Информация : Audio Coding 3
Идентификатор кодека : A_AC3
Продолжительность : 1 ч. 41 м.
Вид битрейта : Постоянный
Битрейт : 192 Кбит/сек
Каналы : 2 канала
Расположение каналов : Front: L R
Частота : 48,0 КГц
Частота кадров : 31,250 кадров/сек (1536 SPF)
Битовая глубина : 16 бит
Метод сжатия : С потерями
Размер потока : 140 Мбайт (1%)
Заголовок : AVO | П. Карцев
Язык : Russian
По умолчанию : Нет
Принудительно : Нет

Аудио #4
Идентификатор : 5
Формат : E-AC-3
Формат/Информация : Enhanced Audio Coding 3
Идентификатор кодека : A_EAC3
Продолжительность : 1 ч. 41 м.
Вид битрейта : Постоянный
Битрейт : 224 Кбит/сек
Каналы : 2 канала
Расположение каналов : Front: L R
Частота : 48,0 КГц
Частота кадров : 187,500 кадров/сек (256 SPF)
Метод сжатия : С потерями
Задержка видео : 28 мс.
Размер потока : 163 Мбайт (2%)
Заголовок : Original
Язык : English
По умолчанию : Нет
Принудительно : Нет

Текст #1
Идентификатор : 6
Формат : UTF-8
Идентификатор кодека : S_TEXT/UTF8
Идентификатор кодека/Информация : UTF-8 Plain Text
Язык : Russian
По умолчанию : Нет
Принудительно : Нет

Текст #2
Идентификатор : 7
Формат : UTF-8
Идентификатор кодека : S_TEXT/UTF8
Идентификатор кодека/Информация : UTF-8 Plain Text
Язык : English
По умолчанию : Нет
Принудительно : Нет

Текст #3
Идентификатор : 8
Формат : UTF-8
Идентификатор кодека : S_TEXT/UTF8
Идентификатор кодека/Информация : UTF-8 Plain Text
Заголовок : SDH
Язык : English
По умолчанию : Нет
Принудительно : Нет

Меню
00:00:00.000 : en:Chapter 01
00:04:35.252 : en:Chapter 02
00:07:58.021 : en:Chapter 03
00:10:25.034 : en:Chapter 04
00:15:12.889 : en:Chapter 05
00:19:44.792 : en:Chapter 06
00:27:39.299 : en:Chapter 07
00:30:56.630 : en:Chapter 08
00:36:02.969 : en:Chapter 09
00:44:41.421 : en:Chapter 10
00:46:39.169 : en:Chapter 11
00:48:39.622 : en:Chapter 12
00:50:23.660 : en:Chapter 13
00:52:10.633 : en:Chapter 14
00:55:36.172 : en:Chapter 15
00:57:28.251 : en:Chapter 16
00:59:52.125 : en:Chapter 17
01:05:39.172 : en:Chapter 18
01:08:07.486 : en:Chapter 19
01:10:10.810 : en:Chapter 20
01:11:56.382 : en:Chapter 21
01:15:08.457 : en:Chapter 22
01:17:24.960 : en:Chapter 23
01:19:25.381 : en:Chapter 24
01:21:58.066 : en:Chapter 25
01:24:50.872 : en:Chapter 26
01:29:45.734 : en:Chapter 27
01:32:40.175 : en:Chapter 28
• Исходник видео WEB-DL Amazon.
pb.wtf



Скачать Ложный огонь через торрент https://b.radikal.ru/b05/1806/ff/e6cfa92177d6.png Скачать фильм Ложный огонь через торрент бесплантно в хорошем качестве О фильме: Фильм поставленн по повести Джойс Кэрол Оуэтс.Не выдержав постоянных приставаний учителя биологии, несколько девчонок жестоко ... 7 10 2
Info! Золотая раздача, скачанное не засчитывается.
Торрент: Зарегистрирован [2019-07-18 22:19] · скачан: 11 раз
Статус: √ проверено
Размер: 10.39 GB
Как cкачать? Как скачать Ложный огонь через торрент | qTorrent

28-11-2019 20:33  

Отключить всю рекламу на сайте

    Дорогой пользователь! Огромная просьба, поблагодарите релизера, оцените раздачу и оставьте свои комментарий, если Вы скачали Ложный огонь через торрент бесплатно! Внесите свою лепту в развитие PiratBit!
    Комментировать посты могут только пользователи прошедшие не сложную регистрацию
    Показать сообщения:    

    Ложный огонь через торрент
    Скачать бесплатно Ложный огонь
    Ложный огонь скачать торрент
    Ложный огонь смотреть онлайн
    Cкачать фильм Ложный огонь бесплатно
    Ложный огонь скачать торрент в хорошем качестве
    Ложный огонь смотреть онлайн бесплатно в хорошем качестве


    Вы не можете начинать темы
    Вы не можете отвечать на сообщения
    Вы не можете редактировать свои сообщения
    Вы не можете удалять свои сообщения
    Вы не можете голосовать в опросах
    Вы не можете прикреплять файлы к сообщениям
    Вы можете скачивать файлы