Всегда рабочее зеркало просто перед .vidak.icu напиши любое слово или цифру, Пример http://xu2.vidak.icu

>

7.4

iTunes

7.4

2 сезон

9.4

1 сезон

1

7.4

2 сезон

7.2

iTunes

6.0

MVO

13

6.1

iTunes

8.3

Пиратка

30

ULTIMATE

pack

9.9

Лицензия

ВАЖНО

ИГРА 18+

pack

7.3

RePack

MK11

7.7

RePack

jed

7.8

RePack

fifa19

8.5

RePack

RDR2

RePack

NEED FOR SPEED™ PAYBACK

1 сезон

9 сезон

Бесстыжие 9 сезон

Все сериалы

все сериалы на PB.wtf

RePack

FAR CRY 5

Anonymous, доброй ночи, мы катастрофически не успеваем собрать деньги на оплату серверов, помогите нам пожалуйста 5,10,15р., для нас важна любая помощь . В качестве благодарности мы отключим Вам всю рекламу на сайте (укажите свой ник в строку Ваше имя)!

×
  
Magnet ссылка

Напугать Джессику до смерти / Let’s Scare Jessica to Death (Джон Д. Хэнкок) [1971 г., Ужасы, триллер, детектив, мистика, вампиры, WEB-DL 1080p от KORSAR][VO] pb.wtf

Напугать Джессику до смерти через торрент pb.wtf

Размер: 8.68 GB | Добавлен: 2 года 6 мес. назад | Торрент скачан:2 раза
Смотреть онлайн Напугать Джессику до смерти | Скачать    Ребята, помогите собрать деньги на оплату серверов!!!

18-07-2019 22:50 Напугать Джессику до смерти Скачать торрент  

Название: Напугать Джессику до смерти
Оригинальное название: Let’s Scare Jessica to Death
Год выпуска: 1971
Жанр: Ужасы, триллер, детектив, мистика, вампиры

Режиссер: Джон Д. Хэнкок
В ролях: Зора Ламперт, Бартон Хейман, Кевин О`Коннор, Гретчен Корбетт, Алан Мэнсон, Мариклэр Костильо

О фильме: Джессика только что вышла из психиатрической лечебницы. Её супруг решает, что для окончательно выздоровления необходим свежий воздух и вместе с Джессикой и другом переезжает в недавно купленный загородный дом. Подъезжая к дому, Джессика начинает слышать голоса и видеть странные видения, но считает, что ей это только кажется и скрывает это от остальных. Оказывается дом не пустой. В нем обосновалась очаровательная бездомная девушка хиппи Эмили. Джессике становится жалко Эмили и она упрашивает её остаться. Вместе будет веселее. А с Эмили действительно весело, она просто душа компании и прекрасно играет на гитаре. Но почему она так похожа на девушку на старинном портрете, висящем в доме? Почему все жители соседнего маленького городка ведут себя так странно? Возможно это только игра больного воображения Джессики, а может и нет…

rating

Продолжительность: 01:28:51
Выпущено: США, Paramount Pictures, The Jessica Company
Перевод: Любительский

Качество: WEB-DL 1080p
Формат: MKV
Видео: MPEG-4 AVC, 13,3 Мбит/сек, 1920x1080, 23,976 кадра/сек
Аудио #1: AC3, 2 ch, 192 Кбит/сек | Русский, любительский (одноголосый закадровый) Максим Логинофф
Аудио #2: EAC3, 2 ch, 224 Кбит/сек | Английский, оригинал
Субтитры: Английские, финские
Навигация по главам: Есть

Релиз от:
Общее
Уникальный идентификатор : 192228308296965968771345526346856530035 (0x909DD354AD0C8FEA9864428DD1180073)
Полное имя : Напугать.Джессику.до.смерти.1971.WEB-DL.1080p.mkv
Формат : Matroska
Версия формата : Version 2
Размер файла : 8,68 Гбайт
Продолжительность : 1 ч. 28 м.
Режим общего битрейта : Переменный
Общий поток : 14,0 Мбит/сек
Дата кодирования : UTC 2018-06-03 02:13:22
Программа кодирования : mkvmerge v5.8.0 ('No Sleep / Pillow') built on Sep 2 2012 15:37:04
Библиотека кодирования : libebml v1.2.3 + libmatroska v1.3.0

Видео
Идентификатор : 1
Формат : AVC
Формат/Информация : Advanced Video Codec
Профиль формата : High@L4
Настройки формата : CABAC / 4 Ref Frames
Параметр CABAC формата : Да
Параметр RefFrames формата : 4 кадра
Идентификатор кодека : V_MPEG4/ISO/AVC
Продолжительность : 1 ч. 28 м.
Вид битрейта : Переменный
Битрейт : 13,3 Мбит/сек
Максимальный битрейт : 15,0 Мбит/сек
Ширина : 1920 пикселей
Высота : 1080 пикселей
Соотношение сторон : 16:9
Режим частоты кадров : Постоянный
Частота кадров : 23,976 (24000/1001) кадра/сек
Цветовое пространство : YUV
Субдискретизация насыщенности : 4:2:0
Битовая глубина : 8 бит
Тип развёртки : Прогрессивная
Бит/(Пиксели*Кадры) : 0.267
Размер потока : 8,25 Гбайт (95%)
Библиотека кодирования : x264 core 148 r2623 d5b2374
Настройки программы : cabac=1 / ref=4 / deblock=1:-1:-1 / analyse=0x3:0x133 / me=umh / subme=9 / psy=1 / psy_rd=1.00:0.15 / mixed_ref=1 / me_range=24 / chroma_me=1 / trellis=2 / 8x8dct=1 / cqm=0 / deadzone=21,11 / fast_pskip=1 / chroma_qp_offset=-3 / threads=34 / lookahead_threads=5 / sliced_threads=0 / nr=150 / decimate=1 / interlaced=0 / bluray_compat=0 / constrained_intra=0 / bframes=8 / b_pyramid=2 / b_adapt=2 / b_bias=0 / direct=3 / weightb=1 / open_gop=0 / weightp=2 / keyint=120 / keyint_min=61 / scenecut=0 / intra_refresh=0 / rc_lookahead=120 / rc=crf / mbtree=1 / crf=18.0 / qcomp=0.60 / qpmin=0 / qpmax=69 / qpstep=4 / vbv_maxrate=15000 / vbv_bufsize=31250 / crf_max=0.0 / nal_hrd=vbr / filler=0 / ip_ratio=1.40 / aq=3:1.00
Язык : English
Default : Да
Forced : Нет
Цветовой диапазон : Limited
Основные цвета : BT.709
Характеристики трансфера : BT.709
Коэффициенты матрицы : BT.709

Аудио #1
Идентификатор : 2
Формат : AC-3
Формат/Информация : Audio Coding 3
Идентификатор кодека : A_AC3
Продолжительность : 1 ч. 28 м.
Вид битрейта : Постоянный
Битрейт : 192 Кбит/сек
Каналы : 2 канала
Расположение каналов : Front: L R
Частота : 48,0 КГц
Частота кадров : 31,250 кадров/сек (1536 SPF)
Битовая глубина : 16 бит
Метод сжатия : С потерями
Размер потока : 122 Мбайт (1%)
Заголовок : VO | М. Логинофф
Язык : Russian
По умолчанию : Да
Принудительно : Нет

Аудио #2
Идентификатор : 3
Формат : E-AC-3
Формат/Информация : Enhanced Audio Coding 3
Идентификатор кодека : A_EAC3
Продолжительность : 1 ч. 28 м.
Вид битрейта : Постоянный
Битрейт : 224 Кбит/сек
Каналы : 2 канала
Расположение каналов : Front: L R
Частота : 48,0 КГц
Частота кадров : 187,500 кадров/сек (256 SPF)
Метод сжатия : С потерями
Размер потока : 142 Мбайт (2%)
Заголовок : Original
Язык : English
По умолчанию : Нет
Принудительно : Нет

Текст #1
Идентификатор : 4
Формат : UTF-8
Идентификатор кодека : S_TEXT/UTF8
Идентификатор кодека/Информация : UTF-8 Plain Text
Заголовок : 1
Язык : English
По умолчанию : Нет
Принудительно : Нет

Текст #2
Идентификатор : 5
Формат : UTF-8
Идентификатор кодека : S_TEXT/UTF8
Идентификатор кодека/Информация : UTF-8 Plain Text
Заголовок : 2
Язык : English
По умолчанию : Нет
Принудительно : Нет

Текст #3
Идентификатор : 6
Формат : UTF-8
Идентификатор кодека : S_TEXT/UTF8
Идентификатор кодека/Информация : UTF-8 Plain Text
Заголовок : SDH
Язык : English
По умолчанию : Нет
Принудительно : Нет

Текст #4
Идентификатор : 7
Формат : UTF-8
Идентификатор кодека : S_TEXT/UTF8
Идентификатор кодека/Информация : UTF-8 Plain Text
Язык : Finnish
По умолчанию : Нет
Принудительно : Нет

Меню
00:00:00.000 : en:Starting Over
00:06:09.000 : en:The House
00:12:04.000 : en:Dinner With A Stranger
00:16:40.000 : en:Seance
00:24:06.000 : en:Sick Again
00:31:17.000 : en:Crazy Town
00:36:49.000 : en:The Bishop Family Story
00:41:13.000 : en:Something Strange
00:49:07.000 : en:Professional Help
00:54:55.000 : en:The Mouse Is Dead
01:02:26.000 : en:Summer Swim
01:08:06.000 : en:Running Away
01:13:31.000 : en:A New Old Dress
01:19:12.000 : en:Reunion At The House
01:25:05.000 : en:Alone
• Исходник видео WEB-DL Amazon.
pb.wtf



Скачать Напугать Джессику до смерти через торрент http://d.radikal.ru/d40/1907/dd/0f6c78f3784b.jpg Скачать, смотреть онлайн Напугать Джессику до смерти бесплантно в хорошем качестве О фильме: Джессика только что вышла из психиатрической лечебницы. Её супруг решает, что для окончательно выздоровления необходим свежий ... 10 10 3
Info! Золотая раздача, скачанное не засчитывается.
Торрент: Зарегистрирован [2019-07-18 22:50] · скачан: 2 раз
Статус: √ проверено
Размер: 8.68 GB
Как cкачать? Как скачать Напугать Джессику до смерти через торрент | UTorrent

28-11-2019 20:33  

Отключить всю рекламу на сайте

    Дорогой пользователь! Огромная просьба, поблагодарите релизера, оцените раздачу и оставьте свои комментарий, если Вы скачали Напугать Джессику до смерти через торрент бесплатно!
    Комментировать посты могут только пользователи прошедшие не сложную регистрацию
    Показать сообщения:    

    Напугать Джессику до смерти через торрент
    Скачать бесплатно Напугать Джессику до смерти
    Напугать Джессику до смерти скачать торрент
    Напугать Джессику до смерти смотреть онлайн
    Cкачать фильм Напугать Джессику до смерти бесплатно
    Напугать Джессику до смерти скачать торрент в хорошем качестве
    Напугать Джессику до смерти смотреть онлайн бесплатно в хорошем качестве


    Вы не можете начинать темы
    Вы не можете отвечать на сообщения
    Вы не можете редактировать свои сообщения
    Вы не можете удалять свои сообщения
    Вы не можете голосовать в опросах
    Вы не можете прикреплять файлы к сообщениям
    Вы можете скачивать файлы