новый адрес
Ссылка на приватное зеркало всего за 1$. Внимание количество ограничено!!!

iTunes

1+1

iTunes

мы

WEB-DL

1

iTunes

Чернобыль

iTunes

Ральф против интернета

Лицензия

ПШазам

Лицензия

Оно 2

Лицензия

30
pack

Вам бонус

ВАЖНО

!!Акция!!

Alien_RageХит недели

RePack

Resident Evil 21

ИГРА 18+

pack

RePack

jed

!!Акция!!

Alien_Rage

RePack

fifa19

RePack

Assassins Creed: Odyssey

RePack

NEED FOR SPEED™ PAYBACK

3 сезон

9 сезон

Бесстыжие 9 сезон

Все сериалы

все сериалы на PB.wtf

RePack

FAR CRY 5
Ребята, катастрофически не хватает 1900р. для оплаты серверов за Октябрь (всвязи с блокировками трафик упал в 3 раза), 1-2р., выручайте.
  

Тайная одержимость / Secret Obsession (Питер Салливан) [2019, Триллер, драма, WEB-DLRip-AVC] DUB [Невафильм] - ExKinoRay pb.wtf

Тайная одержимость через торрент pb.wtf

Раздают: 34 [ 1 KB/s ] Качают: 3 [ 0 KB/s ]
Размер: 1.85 GB | Добавлен: 4 мес. 19 д. назад | Торрент скачан:243 раза
Скачать  

19-07-2019 00:45 Тайная одержимость Скачать торрент  

Информация о фильме
Название: Тайная одержимость
Оригинальное название: Secret Obsession
Год выхода: 2019
Жанр: Триллер, драма
Режиссер: Питер Салливан
В ролях: Бренда Сонг, Майк Фогель, Деннис Хейсбёрт, Эшли Скотт, Пол Слоун, Дэниэл Буко, Скотт Пит, Блэр Хикки, Майкл Патрик Макгилл

Описание:
Очнувшись в больнице после аварии с травмой головы Дженнифер не может ничего вспомнить из прошлого. Муж, радуясь что она осталась жива, отвозит её домой, в уединенное горное поместье. Наедине с мужчиной, о котором она ничего не помнит, ей становится очень тревожно. Ведущий расследование детектив Фрэнк Пейдж подозревает, что произошедшее не является случайностью. После того как его дочь пропала без вести и не была найдена, он очень тщательно проверяет все улики, пытаясь ничего не упустить. Найдя фотографии пострадавшей женщины в Интернете, где она с мужем, Пейдж понимает, что ей грозит смертельная опасность. Ведь человек забравший Дженнифер из больницы — не её муж.

rating

Страна: США
Студия: Hybrid
Продолжительность: 01:37:58
Перевод: Дублированный | Невафильм

Формат: MKV
Качество: WEB-DLRip-AVC
Видео: MPEG-4 AVC, 1024x434 (2.35:1), 23.976 fps, 1810 Kbps, 0.170 bit/pixel
Аудио #1: 48 kHz, AC3, 5.1, 448 Kbps (Dub) |
Аудио #2: 48 kHz, AC3, 5.1, 448 Kbps (Английский - Original) |

Субтитры: Русские (Forced, Full), английские

General
Unique ID : 228840122853470985899002872595507521704 (0xAC29012770F43CCCBE16B7BFCA9B28A8)
Complete name : D:\Secret.Obsession.2019.Dub.NF.WEB-DL.AVC.ExKinoRay.mkv
Format : Matroska
Format version : Version 2
File size : 1.85 GiB
Duration : 1 h 37 min
Overall bit rate : 2 704 kb/s
Movie name : Secret Obsession (2019) from ExKinoRay
Encoded date : UTC 2019-07-19 00:06:55
Writing application : mkvmerge v5.6.0 ('Kenya Kane') built on May 27 2012 16:44:04
Writing library : libebml v1.2.3 + libmatroska v1.3.0

Video
ID : 1
Format : AVC
Format/Info : Advanced Video Codec
Format profile : High@L4.1
Format settings, CABAC : Yes
Format settings, ReFrames : 12 frames
Codec ID : V_MPEG4/ISO/AVC
Duration : 1 h 37 min
Bit rate : 1 810 kb/s
Width : 1 024 pixels
Height : 434 pixels
Display aspect ratio : 2.35:1
Frame rate mode : Constant
Frame rate : 23.976 (23976/1000) FPS
Color space : YUV
Chroma subsampling : 4:2:0
Bit depth : 8 bits
Scan type : Progressive
Bits/(Pixel*Frame) : 0.170
Stream size : 1.20 GiB (65%)
Title : Enigma
Writing library : x264 core 152 r2851 ba24899
Encoding settings : cabac=1 / ref=12 / deblock=1:-2:-2 / analyse=0x3:0x113 / me=umh / subme=10 / psy=1 / psy_rd=1.05:0.11 / mixed_ref=1 / me_range=32 / chroma_me=1 / trellis=2 / 8x8dct=1 / cqm=0 / deadzone=21,11 / fast_pskip=0 / chroma_qp_offset=-3 / threads=12 / lookahead_threads=3 / sliced_threads=0 / nr=0 / decimate=0 / interlaced=0 / bluray_compat=0 / constrained_intra=0 / bframes=12 / b_pyramid=2 / b_adapt=2 / b_bias=0 / direct=3 / weightb=1 / open_gop=0 / weightp=2 / keyint=240 / keyint_min=23 / scenecut=40 / intra_refresh=0 / rc=2pass / mbtree=0 / bitrate=1810 / ratetol=1.0 / qcomp=0.70 / qpmin=0 / qpmax=51 / qpstep=4 / cplxblur=20.0 / qblur=0.5 / ip_ratio=1.40 / pb_ratio=1.30 / aq=3:0.80
Language : English
Default : Yes
Forced : No
Color range : Limited
Color primaries : BT.709
Transfer characteristics : BT.709
Matrix coefficients : BT.709

Audio #1
ID : 2
Format : AC-3
Format/Info : Audio Coding 3
Mode extension : CM (complete main)
Format settings, Endianness : Big
Codec ID : A_AC3
Duration : 1 h 37 min
Bit rate mode : Constant
Bit rate : 448 kb/s
Channel(s) : 6 channels
Channel positions : Front: L C R, Side: L R, LFE
Sampling rate : 48.0 kHz
Frame rate : 31.250 FPS (1536 spf)
Compression mode : Lossy
Stream size : 314 MiB (17%)
Title : Dub
Language : Russian
Default : Yes
Forced : No

Audio #2
ID : 3
Format : AC-3
Format/Info : Audio Coding 3
Mode extension : CM (complete main)
Format settings, Endianness : Big
Codec ID : A_AC3
Duration : 1 h 37 min
Bit rate mode : Constant
Bit rate : 448 kb/s
Channel(s) : 6 channels
Channel positions : Front: L C R, Side: L R, LFE
Sampling rate : 48.0 kHz
Frame rate : 31.250 FPS (1536 spf)
Compression mode : Lossy
Stream size : 314 MiB (17%)
Language : English
Default : No
Forced : No

Text #1
ID : 4
Format : UTF-8
Codec ID : S_TEXT/UTF8
Codec ID/Info : UTF-8 Plain Text
Title : Forced
Language : Russian
Default : Yes
Forced : No

Text #2
ID : 5
Format : UTF-8
Codec ID : S_TEXT/UTF8
Codec ID/Info : UTF-8 Plain Text
Title : Ful
Language : Russian
Default : No
Forced : No

Text #3
ID : 6
Format : UTF-8
Codec ID : S_TEXT/UTF8
Codec ID/Info : UTF-8 Plain Text
Title : Full
Language : English
Default : No
Forced : No

Text #4
ID : 7
Format : UTF-8
Codec ID : S_TEXT/UTF8
Codec ID/Info : UTF-8 Plain Text
Title : SDH
Language : English
Default : No
Forced : No
Релиз от:

Автор релиза: pb.wtf



Скачать Тайная одержимость через торрент https://d.radikal.ru/d25/1907/4c/4da49363abd4.png Скачать фильм Тайная одержимость через торрент бесплантно в хорошем качестве Описание: Очнувшись в больнице после аварии с травмой головы Дженнифер не может ничего вспомнить из прошлого. Муж, радуясь что она осталась ... 10 10 1
Info! Золотая раздача, скачанное не засчитывается.
Торрент: Зарегистрирован [2019-07-19 00:45] · скачан: 243 раз
Статус: √ проверено
Размер: 1.85 GB
Как cкачать? Как скачать Тайная одержимость через торрент | qTorrent

28-11-2019 20:33  

Отключить всю рекламу на сайте

    Дорогой пользователь! Огромная просьба, поблагодарите релизера, оцените раздачу и оставьте свои комментарий, если Вы скачали Тайная одержимость через торрент бесплатно! Внесите свою лепту в развитие PiratBit!
    Комментировать посты могут только пользователи прошедшие не сложную регистрацию
    Показать сообщения:    

    Тайная одержимость через торрент
    Скачать бесплатно Тайная одержимость
    Тайная одержимость скачать торрент
    Тайная одержимость смотреть онлайн
    Cкачать фильм Тайная одержимость бесплатно
    Тайная одержимость скачать торрент в хорошем качестве
    Тайная одержимость смотреть онлайн бесплатно в хорошем качестве


    Вы не можете начинать темы
    Вы не можете отвечать на сообщения
    Вы не можете редактировать свои сообщения
    Вы не можете удалять свои сообщения
    Вы не можете голосовать в опросах
    Вы не можете прикреплять файлы к сообщениям
    Вы можете скачивать файлы