новый адрес
Ссылка на приватное зеркало всего за 1$. Внимание количество ограничено!!!

iTunes

1+1

iTunes

мы

WEB-DL

1

iTunes

Чернобыль

iTunes

Ральф против интернета

Лицензия

ПШазам

Лицензия

Оно 2

Лицензия

30
pack

Вам бонус

ВАЖНО

!!Акция!!

Alien_RageХит недели

RePack

Resident Evil 21

ИГРА 18+

pack

RePack

jed

!!Акция!!

Alien_Rage

RePack

fifa19

RePack

Assassins Creed: Odyssey

RePack

NEED FOR SPEED™ PAYBACK

3 сезон

9 сезон

Бесстыжие 9 сезон

Все сериалы

все сериалы на PB.wtf

RePack

FAR CRY 5
Ребята, катастрофически не хватает 1900р. для оплаты серверов за Октябрь (всвязи с блокировками трафик упал в 3 раза), 1-2р., выручайте.
  

Сотня / The 100 / Сезон: 6 / Серии: 1-13 из 13 (Дин Уайт) [2019, фантастика, драма, детектив, WEBRip 720p] MVO [LostFilm] pb.wtf

Сотня через торрент pb.wtf

Размер: 25.41 GB | Добавлен: 4 мес. 1 д. назад | Торрент скачан:39 раз
Скачать  

19-07-2019 06:07 Сотня Скачать торрент  

Сотня / The 100
«Survival isn't who you are. It's who you become»
Производство: США
Год выпуска: 2019
Жанр: фантастика, драма, детектив, приключения
Продолжительность: ~ 00:42:00 серия
Премьера (мир): 19 марта 2014
Премьера (РФ): 18 января 2015
Перевод: Профессиональный (многоголосый закадровый) | |LostFilm|
Субтитры: English (SDH)

Оригинальная аудиодорожка: Английская

Режиссер: Дин Уайт, П.Дж. Пеше, Эд Фрэйман

В ролях: Элиза Тейлор-Коттер, Мари Авгеропулос, Сачин Сахель, Линдси Морган, Женевьев Бюкнер, Ричард Хэрмон

Описание:

После ядерной войны прошло 97 лет. Остатки человечества, укрывшиеся на космической станции «Ковчег», страдают от нехватки ресурсов, необходимых для дальнейшего выживания. Правительство исчерпало все меры, включая жесткое ограничение рождаемости, но ситуация продолжает ухудшаться.

Остается единственный выход — попробовать вернуться на Землю. Чтобы узнать, пригодна ли для жизни покинутая давным-давно планета, правительство отправляет туда сотню молодых правонарушителей, в числе которых оказываются дети высокопоставленных чиновников и других известных на «Ковчеге» людей. Теперь судьба всего человечества зависит от этой группы «изгнанников»...



Качество: WEBRip 720p
Формат: MKV

Видео: AVC, 1280 x 720 (1.778), 23.976 fps, ~6000 kbps
Аудио Rus: AC-3, 48 kHz, 2 ch, 192 kbps |LostFilm|
Аудио Eng: AC-3, 48 kHz, 6 ch, 384 kbps |Original|
Общее
Уникальный идентификатор : 81015711711777175557438713925543160358 (0x3CF30EFAD96757A4FCA484C7CEF86A26)
Полное имя : E:\_Сериалы\_Сериалы\100\The.100.S06.720p.WEBRip.LostFilm\The.100.S06E01.720p.WEBRip.LostFilm.mkv
Формат : Matroska
Версия формата : Version 4
Размер файла : 1,97 Гбайт
Продолжительность : 42 м. 22 с.
Общий поток : 6660 Кбит/сек
Название фильма : The 100 06x01 (Sanctum) - release by messafan for CasStudio
Дата кодирования : UTC 2019-05-10 17:30:55
Программа кодирования : mkvmerge v31.0.0 ('Dolores In A Shoestand') 64-bit
Библиотека кодирования : libebml v1.3.6 + libmatroska v1.4.9

Видео
Идентификатор : 1
Формат : AVC
Формат/Информация : Advanced Video Codec
Профиль формата : High@L3.1
Настройки формата : CABAC / 4 Ref Frames
Параметр CABAC формата : Да
Параметр RefFrames формата : 4 кадра
Идентификатор кодека : V_MPEG4/ISO/AVC
Продолжительность : 42 м. 22 с.
Вид битрейта : Постоянный
Битрейт : 6000 Кбит/сек
Ширина : 1280 пикселей
Высота : 720 пикселей
Соотношение сторон : 16:9
Режим частоты кадров : Постоянный
Частота кадров : 23,976 (24000/1001) кадра/сек
Цветовое пространство : YUV
Субдискретизация насыщенности : 4:2:0
Битовая глубина : 8 бит
Тип развёртки : Прогрессивная
Бит/(Пиксели*Кадры) : 0.272
Размер потока : 1,74 Гбайт (88%)
Default : Да
Forced : Нет
Цветовой диапазон : Limited
Основные цвета : BT.709
Характеристики трансфера : BT.709
Коэффициенты матрицы : BT.709

Аудио #1
Идентификатор : 2
Формат : AC-3
Формат/Информация : Audio Coding 3
Коммерческое название : Dolby Digital
Идентификатор кодека : A_AC3
Продолжительность : 42 м. 22 с.
Вид битрейта : Постоянный
Битрейт : 192 Кбит/сек
Каналы : 2 канала
Channel layout : L R
Частота : 48,0 КГц
Частота кадров : 31,250 кадров/сек (1536 SPF)
Битовая глубина : 16 бит
Метод сжатия : С потерями
Размер потока : 116 Мбайт (6%)
Язык : Russian
ServiceKind/String : Complete Main
Default : Да
Forced : Нет

Аудио #2
Идентификатор : 3
Формат : AC-3
Формат/Информация : Audio Coding 3
Коммерческое название : Dolby Digital
Идентификатор кодека : A_AC3
Продолжительность : 42 м. 22 с.
Вид битрейта : Постоянный
Битрейт : 384 Кбит/сек
Каналы : 6 каналов
Channel layout : L R C LFE Ls Rs
Частота : 48,0 КГц
Частота кадров : 31,250 кадров/сек (1536 SPF)
Битовая глубина : 16 бит
Метод сжатия : С потерями
Размер потока : 116 Мбайт (6%)
Язык : English
ServiceKind/String : Complete Main
Default : Нет
Forced : Нет

Текст #1
Идентификатор : 4
Формат : UTF-8
Идентификатор кодека : S_TEXT/UTF8
Идентификатор кодека/Информация : UTF-8 Plain Text
Продолжительность : 41 м. 52 с.
Битрейт : 61 бит/сек
ElementCount : 667
Размер потока : 18,9 Кбайт (0%)
Язык : English
Default : Нет
Forced : Нет

Текст #2
Идентификатор : 5
Формат : UTF-8
Идентификатор кодека : S_TEXT/UTF8
Идентификатор кодека/Информация : UTF-8 Plain Text
Продолжительность : 41 м. 52 с.
Битрейт : 63 бит/сек
ElementCount : 706
Размер потока : 19,4 Кбайт (0%)
Заголовок : SDH
Язык : English
Default : Нет
Forced : Нет
Раздача ведётся путём добавления новых серий; при каждом добавлении создаётся новый торрент.
Чтобы начать докачку новой серии, пользователям необходимо сделать следующее:
1. остановить скачивание,
2. удалить старый торрент у себя из клиента (старые серии удалять не надо),
3. скачать новый торрент и запустить его у себя в клиенте вместо старого, при этом указать клиенту путь в старую папку, куда и должно происходить скачивание новых серий.

Ваш клиент при этом должен произвести хеширование (проверку) старой папки (если не производит сам - помогите ему сделать это), и будет докачивать только те серии которых у вас ещё нет. Старые серии при этом не удаляются, а продолжают раздаваться!

Eсли вы уже удалили старые серии, то предотвратить повторную закачку старых серий можно, отжав галочку в соответствующих местах при запуске нового торрента. По возможности, желательно не удалять старые серии как можно дольше, чтобы релизёр не столько продолжал раздавать старые серии, а смог сконцентрироваться на новых.

Совет для тех, кто не хочет ждать перехеширования:
Создайте ещё одну папку рядом с папкой сериала (рядом, а не в ней!!!). Каждую новую серию после удачной загрузки копируйте в новую папку так чтобы ваша основная папка всегда была пуста. Когда ваш новый торрент предложит вам закачать все файлы, выберете только последнюю. Для сидирования же укажите адрес новой папки.

Как закачать отдельный файл из торрента или докачать ранее пропущенные файлы торрента!
1. Открыть торрент
2. Снять галки с тех файлов торрента, которые мы не хотим закачивать. Оставляем только на нужных нам файлах (файле).
3. Нажать О.К.

В клиенте utorrent

Инструкция

1) Открыть торрент


2) Снять галки с тех файлов торрента, которые мы не хотим закачивать:

* либо вручную, снимая с каждого файла галку( скрин №1)
* либо, нажав кнопку "Снять метки (Select None)", сняв сразу со всех файлов(скрин №2)
№1

№2

Оставляем только на нужных нам файлах (файле).

3)Нажать О.К
Приятного просмотра!!!pb.wtf



Скачать Сотня через торрент https://i2.imageban.ru/out/2019/05/03/f09465bf434f14aa45d419edb0339b51.png Скачать фильм Сотня через торрент бесплантно в хорошем качестве Описание:После ядерной войны прошло 97 лет. Остатки человечества, укрывшиеся на космической станции «Ковчег», страдают от нехватки ... 8.5 10 6
Торрент: Зарегистрирован [2019-08-09 09:40] · скачан: 39 раз
Статус: √ проверено
Размер: 25.41 GB
Как cкачать? Как скачать Сотня через торрент | qTorrent

% Раздел Тема Автор DL S | L
Зарубежные сериалы [ 45.92 GB ] Сотня / The 100 / Сезон: 6 / Серии: 1-13 из 13 [2019 WEB-DL 1080p] MVO [LostFilm] bober100 Скачать
1 | 0
Зарубежные сериалы [ 29.22 GB ] Сотня / The 100 / Сезон: 6 / Серии: 1-13 из 13 [2019 WEB-DL 1080p] MVO [AlexFilm] bober100 Скачать
1 | 0
Зарубежные сериалы [ 46.65 GB ] Сотня / The 100 / Сезон: 6 / Серии: 1-13 из 13 [2019 WEB-DL 1080p] [MVO] killermax2013 Скачать
1 | 0
Зарубежные сериалы [ 12.14 GB ] Сотня / The 100 / Сезон: 6 / Серии: 1-13 из 13 [2019 WEBRip 720p] MVO [Jaskier] bober100 Скачать
1 | 0
Зарубежные сериалы [ 7.1 GB ] Сотня / The 100 / Сезон: 6 / Серии: 1-13 из 13 [2019 WEBRip] MVO [Jaskier] bober100 Скачать
3 | 0
Зарубежные сериалы [ 15.01 GB ] Сотня / The 100 / Сезон: 6 / Серии: 1-13 из 13 [2019 WEBRip 720p] MVO [AlexFilm] bober100 Скачать
2 | 0
Зарубежные сериалы [ 10.65 GB ] Сотня / The 100 / Сезон: 6 / Серии: 1-13 из 13 [2019 WEB-DLRip] [MVO] killermax2013 Скачать
1 | 0

28-11-2019 20:33  

Отключить всю рекламу на сайте

    Дорогой пользователь! Огромная просьба, поблагодарите релизера, оцените раздачу и оставьте свои комментарий, если Вы скачали Сотня через торрент бесплатно! Внесите свою лепту в развитие PiratBit!
    Комментировать посты могут только пользователи прошедшие не сложную регистрацию
    Показать сообщения:    

    Сотня через торрент
    Скачать бесплатно Сотня
    Сотня скачать торрент
    Сотня смотреть онлайн
    Cкачать фильм Сотня бесплатно
    Сотня скачать торрент в хорошем качестве
    Сотня смотреть онлайн бесплатно в хорошем качестве


    Вы не можете начинать темы
    Вы не можете отвечать на сообщения
    Вы не можете редактировать свои сообщения
    Вы не можете удалять свои сообщения
    Вы не можете голосовать в опросах
    Вы не можете прикреплять файлы к сообщениям
    Вы можете скачивать файлы