Ссылка на приватное зеркало нашего сайта всего за 1$. Внимание количество ограничено!!!

2 сезон

iTunes

1 сезон

1

iTunes

iTunes

iTunes

1 сезон

RePack

30

ИГРА 18+

pack

ВАЖНО

!!Акция!!

Alien_RageХит недели

RePack

MK11
pack

Забери бонус

RePack

jed

!!Акция!!

Alien_Rage

RePack

fifa19

RePack

Assassins Creed: Odyssey

RePack

NEED FOR SPEED™ PAYBACK

4 сезон

9 сезон

Бесстыжие 9 сезон

Все сериалы

все сериалы на PB.wtf

RePack

FAR CRY 5
  

Метеорит / Сезон: 1 / Серии: 1-8 из 8 (Александр Даруга) [2015, Детектив, мистика, HDTV 1080i] pb.wtf

Метеорит через торрент pb.wtf

Качают: 1 [ 0 KB/s ]
Размер: 20.8 GB | Добавлен: 1 год 3 мес. назад | Торрент скачан:9 раз
Скачать  

19-07-2019 06:34 Метеорит Скачать торрент  

Метеорит Год выпуска: 2015
Страна: Россия
Жанр: Детектив, мистика
Продолжительность: ~ 00:45:00
Перевод: Не требуется
Субтитры: отсутствуют

Режиссер: Александр Даруга

rating

В ролях: Константин Стрельников, Светлана Иванова, Максим Литовченко, Павел Кузьмин, Анна Миклош, Дмитрий Астрахан, Михаил Горевой, Алексей Тимошкин, Юрий Ваксман, Марат Гибадуллин, Анзор Камариддинов, Андрей Багиров, Даниил Филенко (II), Роман Колотухин, Евгений Мундум

Описание: Московский опер-розыскник Леонид Жаров (Константин Стрельников) приезжает в маленький городок Безреченск, чтобы по заданию руководства расследовать массовое исчезновение жителей города. Ведь за последний год в Безреченске бесследно исчезли двадцать пять человек, и с каждым днем количество пропавших растет. Местные жители связывают загадочные события с падением метеорита возле старых рудников. Сильнейший взрыв «тряхнул» весь город, и именно после него и началась вся эта чертовщина. Но Жаров не верит в чудеса, инопланетян и чертей. Он верит в логику и здравый смысл, поэтому общается с родственниками пропавших, пытаясь найти общие обстоятельства загадочных исчезновений. Однако никаких параллелей обнаружить не удается. Никаких свидетелей тоже нет. Расследование продвигается с большим трудом еще и от того, что местные стражи порядка весьма неохотно помогают Жарову, с самого начала встретив столичного гостя в штыки. Приезжий профессор уфологии (Дмитрий Астрахан), который изучает место падения метеорита, убежден, что здесь потерпел крушение инопланетный корабль, а жителей Безреченска забрали инопланетяне. Жаров пытается спорить с ученым, но тот на полном серьезе заявляет, что у него уже был контакт с этими инопланетянами… Жаров начинает сторониться сумасшедшего профессора. Масла в огонь подливает местная экстрасенс Алёна (Светлана Иванова), которую наняли для поисков родственники пропавших. Куда бы Жаров ни пошел, везде он натыкается на «ведьму» Алёну. У нее, как оказалось, тоже был контакт с пропавшими. Алёна считает, что они находятся где-то в лесу. И у Жарова тоже есть версия, что люди ушли из города по собственной воле. Кто станет следующей жертвой, к чему приведут поиски пропавших, кто на самом деле виновник исчезновений людей на месте падения метеорита и как сложится дальнейшая жизнь Леонида и Алёны?

Качество: HDTV 1080i
Формат: TS

Видео: 1920х1080 (16:9), 25 fps, AVC MPEG-4 (x264), High@L4.0 ~ 7500 kbps avg, 0.132 bit/pixel
Аудио: 48 kHz, MPEG Layer 2, 2 ch, ~ 192 kbps avg
скриншот  скриншот  скриншот  скриншот  

Общее
Идентификатор : 1 (0x1)
Полное имя : F:\Фильмы торренты\Meteorit.2015.HDTV.(1080i).MediaClub\Meteorit.(01.seriya.iz.08).2015.HDTV.(1080i).MediaClub.ts
Формат : MPEG-TS
Размер файла : 2,35 Гбайт
Продолжительность : 45 м.
Режим общего битрейта : Переменный
Общий поток : 7414 Кбит/сек

Видео
Идентификатор : 901 (0x385)
Идентификатор меню : 1116 (0x45C)
Формат : AVC
Формат/Информация : Advanced Video Codec
Профиль формата : Main@L4.0
Параметр CABAC формата : Да
Параметр ReFrames формата : 2 кадра
Идентификатор кодека : 27
Продолжительность : 45 м.
Битрейт : 6854 Кбит/сек
Ширина : 1920 пикселей
Высота : 1080 пикселей
Соотношение сторон : 16:9
Частота кадров : 25,000 кадров/сек
Цветовое пространство : YUV
Субдискретизация насыщенности : 4:2:0
Битовая глубина : 8 бит
Тип развёртки : MBAFF
Бит/(Пиксели*Кадры) : 0.132
Размер потока : 2,18 Гбайт (92%)
Основные цвета : BT.709
Характеристики трансфера : BT.709
Коэффициенты матрицы : BT.709

Аудио
Идентификатор : 902 (0x386)
Идентификатор меню : 1116 (0x45C)
Формат : MPEG Audio
Версия формата : Version 1
Профиль формата : Layer 2
Идентификатор кодека : 3
Продолжительность : 45 м.
Вид битрейта : Постоянный
Битрейт : 192 Кбит/сек
Каналы : 2 канала
Частота : 48,0 КГц
Метод сжатия : С потерями
Задержка видео : -80 мс.
Размер потока : 62,4 Мбайт (3%)
Язык : Russian

pb.wtf



Скачать Метеорит через торрент http://i74.fastpic.ru/big/2016/0116/16/9fe99ea3a2c7de5cce78d5e6cc9e0b16.jpg Скачать фильм Метеорит через торрент бесплантно в хорошем качестве Описание: Московский опер-розыскник Леонид Жаров (Константин Стрельников) приезжает в маленький городок Безреченск, чтобы по заданию ... 10 10 2
Торрент: Зарегистрирован [2019-07-19 06:34] · скачан: 9 раз
Статус: √ проверено
Размер: 20.8 GB
Как cкачать? Как скачать Метеорит через торрент | qTorrent

% Раздел Тема Автор DL S | L
Наши сериалы [ 9.72 GB ] Метеорит / Сезон: 1 / Серии: 1-8 из 8 [2015 HDTVRip 720p] bober100 Скачать
2 | 0
Наши сериалы [ 4.9 GB ] Метеорит / Сезон: 1 / Серии: 1-8 из 8 [2015 SATRip] Bibendi Скачать
1 | 0
Мультсериалы [ 1.37 GB ] Метеор и крутые тачки: На старт! / Bigfoot Presents: Meteor and the Mighty Monster Trucks [2006 Мультипликационный сериал DVDRip] МИХА~ Скачать
1 | 0

28-11-2019 20:33  

Отключить всю рекламу на сайте

    Дорогой пользователь! Огромная просьба, поблагодарите релизера, оцените раздачу и оставьте свои комментарий, если Вы скачали Метеорит через торрент бесплатно! Внесите свою лепту в развитие PiratBit!
    Комментировать посты могут только пользователи прошедшие не сложную регистрацию
    Показать сообщения:    

    Метеорит через торрент
    Скачать бесплатно Метеорит
    Метеорит скачать торрент
    Метеорит смотреть онлайн
    Cкачать фильм Метеорит бесплатно
    Метеорит скачать торрент в хорошем качестве
    Метеорит смотреть онлайн бесплатно в хорошем качестве


    Вы не можете начинать темы
    Вы не можете отвечать на сообщения
    Вы не можете редактировать свои сообщения
    Вы не можете удалять свои сообщения
    Вы не можете голосовать в опросах
    Вы не можете прикреплять файлы к сообщениям
    Вы можете скачивать файлы