новый адрес
Ссылка на приватное зеркало всего за 1$. Внимание количество ограничено!!!

iTunes

1+1

iTunes

мы

WEB-DL

1

iTunes

Чернобыль

iTunes

Ральф против интернета

Лицензия

ПШазам

Лицензия

Оно 2

Лицензия

30
pack

Вам бонус

ВАЖНО

!!Акция!!

Alien_RageХит недели

RePack

Resident Evil 21

ИГРА 18+

pack

RePack

jed

!!Акция!!

Alien_Rage

RePack

fifa19

RePack

Assassins Creed: Odyssey

RePack

NEED FOR SPEED™ PAYBACK

3 сезон

9 сезон

Бесстыжие 9 сезон

Все сериалы

все сериалы на PB.wtf

RePack

FAR CRY 5
Ребята, катастрофически не хватает 1900р. для оплаты серверов за Октябрь (всвязи с блокировками трафик упал в 3 раза), 1-2р., выручайте.
  

Легион / Legion / Сезон: 3 / Серии: 1-8 из 8 (Тим Милантс) [2019, фантастика, боевик, триллер, драма, WEB-DL 1080p] MVO [LostFilm] pb.wtf

Легион через торрент pb.wtf

Раздают: 1 [ 0 KB/s ]
Размер: 25.74 GB | Добавлен: 3 мес. 24 д. назад | Торрент скачан:14 раз
Скачать  

19-07-2019 10:23 Легион Скачать торрент  

Легион / Legion
«***»
Производство: США
Год выпуска: 2019
Жанр: фантастика, боевик, триллер, драма
Продолжительность: ~ 00:59:00 серия
Премьера (мир): 26 января 2017, ...
Премьера (РФ): 9 февраля 2017
Перевод: Многоголосый закадровый, профессиональный |LostFilm|
Субтитры: Rus (Ntb), Eng (SDH)

Режиссер: Тим Милантс, Майкл Аппендаль, Джон Камерон

В ролях: Дэн Стивенс, Джин Смарт, Маккензи Грэй, Скотт Лоуренс, Кэтрин Аселтон, Татьяна Форрест, Джереми Харрис, Билл Ирвин, Рэйчел Келлер, Эмбер Мидфандер, Обри Плаза, Хамиш Линклэйтер, Дженнифер Китчен

Описание:
Дэвиду Хэллеру поставлен диагноз — шизофрения. Постепенно выясняется, что картины и голоса, которые он видит и слышит, вполне реальны, а не бред его воспаленного разума.



Качество: WEB-DL 1080p
Формат: MKV

Видео: AVC, 1920 x 1080 (1.778) 23.976 fps, ~8890 kbps
Аудио Rus: AC-3, 48 kHz, 2 ch, 384 kbps |LostFilm|
Аудио Eng: E-AC-3, 48 kHz, 6 ch, 640 kbps |Original|
Общее
Уникальный идентификатор : 108824809766489949712129865600949429297 (0x51DEE55F161BDD7E4917D69A43622431)
Полное имя : E:\_Сериалы\_Сериалы\Легион\Legion.S03.1080p.WEB-DL.LostFilm\Legion.S03E01.1080p.WEB-DL.LostFilm.mkv
Формат : Matroska
Версия формата : Version 4
Размер файла : 3,41 Гбайт
Продолжительность : 49 м. 12 с.
Общий поток : 9913 Кбит/сек
Дата кодирования : UTC 2019-07-19 09:19:16
Программа кодирования : mkvmerge v35.0.0 ('All The Love In The World') 64-bit
Библиотека кодирования : libebml v1.3.9 + libmatroska v1.5.2

Видео
Идентификатор : 1
Формат : AVC
Формат/Информация : Advanced Video Codec
Профиль формата : High@L4
Настройки формата : CABAC / 4 Ref Frames
Параметр CABAC формата : Да
Параметр RefFrames формата : 4 кадра
Идентификатор кодека : V_MPEG4/ISO/AVC
Продолжительность : 49 м. 10 с.
Вид битрейта : Постоянный
Битрейт : 8890 Кбит/сек
Номинальный битрейт : 10000 Кбит/сек
Ширина : 1920 пикселей
Высота : 1080 пикселей
Соотношение сторон : 16:9
Режим частоты кадров : Постоянный
Частота кадров : 23,976 (24000/1001) кадра/сек
Цветовое пространство : YUV
Субдискретизация насыщенности : 4:2:0
Битовая глубина : 8 бит
Тип развёртки : Прогрессивная
Бит/(Пиксели*Кадры) : 0.179
Размер потока : 3,05 Гбайт (90%)
Default : Да
Forced : Нет
Цветовой диапазон : Limited
Основные цвета : BT.709
Характеристики трансфера : BT.709
Коэффициенты матрицы : BT.709

Аудио #1
Идентификатор : 2
Формат : AC-3
Формат/Информация : Audio Coding 3
Коммерческое название : Dolby Digital
Идентификатор кодека : A_AC3
Продолжительность : 49 м. 10 с.
Вид битрейта : Постоянный
Битрейт : 384 Кбит/сек
Каналы : 2 канала
ChannelLayout : L R
Частота : 48,0 КГц
Частота кадров : 31,250 кадров/сек (1536 SPF)
Битовая глубина : 16 бит
Метод сжатия : С потерями
Размер потока : 135 Мбайт (4%)
Язык : Russian
ServiceKind/String : Complete Main
Default : Да
Forced : Нет

Аудио #2
Идентификатор : 3
Формат : E-AC-3
Формат/Информация : Enhanced AC-3
Коммерческое название : Dolby Digital Plus
Идентификатор кодека : A_EAC3
Продолжительность : 49 м. 10 с.
Вид битрейта : Постоянный
Битрейт : 640 Кбит/сек
Каналы : 6 каналов
ChannelLayout : L R C LFE Ls Rs
Частота : 48,0 КГц
Частота кадров : 31,250 кадров/сек (1536 SPF)
Метод сжатия : С потерями
Задержка видео : 30 мс.
Размер потока : 225 Мбайт (6%)
Язык : English
ServiceKind/String : Complete Main
Default : Нет
Forced : Нет

Текст #1
Идентификатор : 4
Формат : UTF-8
Идентификатор кодека : S_TEXT/UTF8
Идентификатор кодека/Информация : UTF-8 Plain Text
Продолжительность : 49 м. 6 с.
Битрейт : 60 бит/сек
ElementCount : 542
Размер потока : 21,8 Кбайт (0%)
Язык : Russian
Default : Нет
Forced : Нет

Текст #2
Идентификатор : 5
Формат : UTF-8
Идентификатор кодека : S_TEXT/UTF8
Идентификатор кодека/Информация : UTF-8 Plain Text
Продолжительность : 49 м. 10 с.
Битрейт : 37 бит/сек
ElementCount : 602
Размер потока : 13,4 Кбайт (0%)
Заголовок : SDH
Язык : English
Default : Нет
Forced : Нет
Раздача ведётся путём добавления новых серий; при каждом добавлении создаётся новый торрент.
Чтобы начать докачку новой серии, пользователям необходимо сделать следующее:
1. остановить скачивание,
2. удалить старый торрент у себя из клиента (старые серии удалять не надо),
3. скачать новый торрент и запустить его у себя в клиенте вместо старого, при этом указать клиенту путь в старую папку, куда и должно происходить скачивание новых серий.

Ваш клиент при этом должен произвести хеширование (проверку) старой папки (если не производит сам - помогите ему сделать это), и будет докачивать только те серии которых у вас ещё нет. Старые серии при этом не удаляются, а продолжают раздаваться!

Eсли вы уже удалили старые серии, то предотвратить повторную закачку старых серий можно, отжав галочку в соответствующих местах при запуске нового торрента. По возможности, желательно не удалять старые серии как можно дольше, чтобы релизёр не столько продолжал раздавать старые серии, а смог сконцентрироваться на новых.

Совет для тех, кто не хочет ждать перехеширования:
Создайте ещё одну папку рядом с папкой сериала (рядом, а не в ней!!!). Каждую новую серию после удачной загрузки копируйте в новую папку так чтобы ваша основная папка всегда была пуста. Когда ваш новый торрент предложит вам закачать все файлы, выберете только последнюю. Для сидирования же укажите адрес новой папки.

Как закачать отдельный файл из торрента или докачать ранее пропущенные файлы торрента!
1. Открыть торрент
2. Снять галки с тех файлов торрента, которые мы не хотим закачивать. Оставляем только на нужных нам файлах (файле).
3. Нажать О.К.

В клиенте utorrent

Инструкция

1) Открыть торрент


2) Снять галки с тех файлов торрента, которые мы не хотим закачивать:

* либо вручную, снимая с каждого файла галку( скрин №1)
* либо, нажав кнопку "Снять метки (Select None)", сняв сразу со всех файлов(скрин №2)
№1

№2

Оставляем только на нужных нам файлах (файле).

3)Нажать О.К
Приятного просмотра!!!pb.wtf



Скачать Легион через торрент https://i3.imageban.ru/out/2019/07/19/4b70064cbefed72078457bed9c714ae9.png Скачать фильм Легион через торрент бесплантно в хорошем качестве Описание:Дэвиду Хэллеру поставлен диагноз — шизофрения. Постепенно выясняется, что картины и голоса, которые он видит и слышит, вполне ... 10 10 3
Торрент: Зарегистрирован [2019-08-15 10:24] · скачан: 14 раз
Статус: √ проверено
Размер: 25.74 GB
Как cкачать? Как скачать Легион через торрент | qTorrent

% Раздел Тема Автор DL S | L
Зарубежные сериалы [ 10.1 GB ] Легион / Legion / Сезон: 3 / Серии: 1-8 из 8 [2019 WEB-DL 720p] [MVO] killermax2013 Скачать
1 | 0
Зарубежные сериалы [ 25.76 GB ] Легион / Legion / Сезон: 3 / Серии: 1-8 из 8 [2019 WEB-DL 1080p] MVO [TVShows] bober100 Скачать
1 | 0
Зарубежные сериалы [ 5.2 GB ] Легион / Legion / Сезон: 3 / Серии: 1-8 из 8 [2019 . WEB-DLRip] MVO [LostFilm] bober100 Скачать
1 | 1
Зарубежные сериалы [ 1.58 GB ] Легион / Legion / Сезон: 3 / Серии: 1- из 8 [2019 WEB-DL 720p] [VO] killermax2013 Скачать
1 | 0

28-11-2019 20:33  

Отключить всю рекламу на сайте

    Дорогой пользователь! Огромная просьба, поблагодарите релизера, оцените раздачу и оставьте свои комментарий, если Вы скачали Легион через торрент бесплатно! Внесите свою лепту в развитие PiratBit!
    Комментировать посты могут только пользователи прошедшие не сложную регистрацию
    Показать сообщения:    

    Легион через торрент
    Скачать бесплатно Легион
    Легион скачать торрент
    Легион смотреть онлайн
    Cкачать фильм Легион бесплатно
    Легион скачать торрент в хорошем качестве
    Легион смотреть онлайн бесплатно в хорошем качестве


    Вы не можете начинать темы
    Вы не можете отвечать на сообщения
    Вы не можете редактировать свои сообщения
    Вы не можете удалять свои сообщения
    Вы не можете голосовать в опросах
    Вы не можете прикреплять файлы к сообщениям
    Вы можете скачивать файлы