Всегда рабочее зеркало без VPN и Proxy просто перед .vidak.icu напиши любое слово или цифру, Пример http://ium8.vidak.icu

Лицензия

MVO

1 сезон

1

1 сезон

iTunes

1 сезон

13

1 сезон

Deluxe

pack

Рекомендуем

Repack

30

ВАЖНО

RePack

MK11

RePack

jed

RePack

fifa19

RePack

RDR2

RePack

NEED FOR SPEED™ PAYBACK

Кинопоиск HD

6 сезон

 Острые козырьки 6 сезон

Все сериалы

все сериалы на PB.wtf

RePack

FAR CRY 5
  
Magnet ссылка

Кванта / Quanta (Натан Далтон) [2019, Фантастика, драма, WEB-DL 1080p] MVO (rua, ukr) [IVI] pb.wtf

Кванта через торрент pb.wtf

Размер: 6.56 GB | Добавлен: 1 мес. 25 д. назад | Торрент скачан:39 раз
Смотреть онлайн Кванта | Скачать    Ребята, помогите собрать деньги на оплату серверов!!!

19-07-2019 13:28 Кванта Скачать торрент  

Кванта
Quanta
Год выпуска: 2019
Страна: Австралия
Жанр: Фантастика, драма
Продолжительность: 01:24:00
Перевод: Профессиональный многоголосый | IVI
Субтитры: Английские

Режиссер: Натан Далтон

rating

В ролях: Пол Доубер, Альберт Гойхман, Дуглас Эмбри, Харлин Геркулес, Тим Кларк, Александра МакТавиш, Марк Редпаф, Стивен Дедженаро, Фил Хейден, Джульетта Салом

Описание: Труд всей жизни ученого-физика начинает, наконец, приносить свои плоды, когда по воле обстоятельств ему приходится работать в одной команде с талантливым юным помощником. Но после фиксации неизвестного сигнала из космоса коллеги-ученые оказываются по разные стороны баррикад.

Качество: WEB-DL 1080p
Формат: MKV

Видео: MPEG-4 AVC, 10.0 Mбит/с, 1920x960, 24.000 fps
Аудио #01: 48 kHz, AC3, 5.1, 384 Kbps | Профессиональный многоголосый | IVI | RUS |
Аудио #02: 48 kHz, AC3, 5.1, 384 Kbps | Профессиональный многоголосый | IVI | UKR |
Аудио #03: 48 kHz, E-AC3, 5.1, 640 Kbps | Оригинал | ENG |
скриншот  скриншот  скриншот  скриншот  

Complete name : Quanta.2019.AMZN.WEB-DL.1080p.ELEKTRI4KA.UNIONGANG.mkv
Format : Matroska
Format version : Version 4
File size : 6.56 GiB
Duration : 1 h 23 min
Overall bit rate : 11.2 Mb/s
Movie name : Quanta.2019.AMZN.WEB-DL.1080p.ELEKTRI4KA.UNIONGANG.
Encoded date : UTC 2022-06-19 18:11:42
Writing application : mkvmerge v8.3.0 ('Over the Horizon') 32bit
Writing library : libebml v1.3.1 + libmatroska v1.4.2

Video
ID : 1
Format : AVC
Format/Info : Advanced Video Codec
Format profile : [email protected]
Format settings : CABAC / 4 Ref Frames
Format settings, CABAC : Yes
Format settings, Reference frames : 4 frames
Format settings, GOP : M=4, N=48
Codec ID : V_MPEG4/ISO/AVC
Duration : 1 h 23 min
Bit rate mode : Constant
Bit rate : 10 000 kb/s
Width : 1 920 pixels
Height : 960 pixels
Display aspect ratio : 2.000
Frame rate mode : Constant
Frame rate : 24.000 FPS
Color space : YUV
Chroma subsampling : 4:2:0
Bit depth : 8 bits
Scan type : Progressive
Bits/(Pixel*Frame) : 0.226
Stream size : 5.73 GiB (87%)
Language : English
Default : Yes
Forced : No
Color range : Limited
Color primaries : BT.709
Transfer characteristics : BT.709
Matrix coefficients : BT.709

Audio #1
ID : 2
Format : AC-3
Format/Info : Audio Coding 3
Commercial name : Dolby Digital
Codec ID : A_AC3
Duration : 1 h 23 min
Bit rate mode : Constant
Bit rate : 384 kb/s
Channel(s) : 6 channels
Channel layout : L R C LFE Ls Rs
Sampling rate : 48.0 kHz
Frame rate : 31.250 FPS (1536 SPF)
Compression mode : Lossy
Stream size : 230 MiB (3%)
Title : MVO (IVI)
Language : Russian
Service kind : Complete Main
Default : Yes
Forced : Yes

Audio #2
ID : 3
Format : AC-3
Format/Info : Audio Coding 3
Commercial name : Dolby Digital
Codec ID : A_AC3
Duration : 1 h 23 min
Bit rate mode : Constant
Bit rate : 384 kb/s
Channel(s) : 6 channels
Channel layout : L R C LFE Ls Rs
Sampling rate : 48.0 kHz
Frame rate : 31.250 FPS (1536 SPF)
Compression mode : Lossy
Stream size : 230 MiB (3%)
Title : MVO (IVI)
Language : Ukrainian
Service kind : Complete Main
Default : No
Forced : No

Audio #3
ID : 4
Format : E-AC-3
Format/Info : Enhanced AC-3
Commercial name : Dolby Digital Plus
Codec ID : A_EAC3
Duration : 1 h 23 min
Bit rate mode : Constant
Bit rate : 640 kb/s
Channel(s) : 6 channels
Channel layout : L R C LFE Ls Rs
Sampling rate : 48.0 kHz
Frame rate : 31.250 FPS (1536 SPF)
Compression mode : Lossy
Stream size : 385 MiB (6%)
Title : Origunal
Language : English
Service kind : Complete Main
Default : No
Forced : No

Text #1
ID : 5
Format : UTF-8
Codec ID : S_TEXT/UTF8
Codec ID/Info : UTF-8 Plain Text
Duration : 1 h 18 min
Bit rate : 56 b/s
Count of elements : 1081
Stream size : 32.6 KiB (0%)
Language : English
Default : No
Forced : No

Text #2
ID : 6
Format : UTF-8
Codec ID : S_TEXT/UTF8
Codec ID/Info : UTF-8 Plain Text
Duration : 1 h 20 min
Bit rate : 62 b/s
Count of elements : 1252
Stream size : 36.7 KiB (0%)
Title : SDH
Language : English
Default : No
Forced : No

pb.wtf



Скачать Кванта через торрент https://i120.fastpic.org/big/2022/0619/56/5c12c95c8b5f85d28dee54608dd89656.png Скачать, смотреть онлайн Кванта бесплантно в хорошем качестве Описание: Труд всей жизни ученого-физика начинает, наконец, приносить свои плоды, когда по воле обстоятельств ему приходится работать в ... 10 10 5
Торрент: Зарегистрирован [2022-06-19 18:45] · скачан: 39 раз
Статус: √ проверено
Размер: 6.56 GB
Как cкачать? Как скачать Кванта через торрент | UTorrent

% Раздел Тема Автор DL S | L
Фильмы 2019-2020 [DVDrip, WEB-DLRip, HDrip] (DUB, MVO) [ 1.65 GB ] Кванта / Quanta [2019 WEB-DLRip-AVC] MVO [IVI] bober100 Скачать
1 | 0
Фильмы 2019-2020 [DVDrip, WEB-DLRip, HDrip] (DUB, MVO) [ 1.47 GB ] Кванта / Quanta [2019 WEB-DLRip] MVO [IVI] bober100 Скачать
1 | 0

28-11-2019 20:33  

Отключить вcю реклaмy на сайте

    Дорогой пользователь! Огромная просьба, поблагодарите релизера, оцените раздачу и оставьте свои комментарий, если Вы скачали Кванта через торрент бесплатно!
    Комментировать посты могут только пользователи прошедшие не сложную регистрацию
    Показать сообщения:    

    Кванта через торрент
    Скачать бесплатно Кванта
    Кванта скачать торрент
    Кванта смотреть онлайн
    Cкачать фильм Кванта бесплатно
    Кванта скачать торрент в хорошем качестве
    Кванта смотреть онлайн бесплатно в хорошем качестве


    Вы не можете начинать темы
    Вы не можете отвечать на сообщения
    Вы не можете редактировать свои сообщения
    Вы не можете удалять свои сообщения
    Вы не можете голосовать в опросах
    Вы не можете прикреплять файлы к сообщениям
    Вы можете скачивать файлы