новый адрес
Ссылка на приватное зеркало всего за 1$. Внимание количество ограничено!!!

iTunes

1+1

iTunes

мы

iTunes

1

iTunes

Чернобыль

iTunes

Ральф против интернета

Лицензия

ПШазам

Лицензия

Оно 2

Лицензия

30
pack

Вам бонус

ВАЖНО

!!Акция!!

Alien_RageХит недели

RePack

Resident Evil 21

ИГРА 18+

pack

RePack

jed

!!Акция!!

Alien_Rage

RePack

fifa19

RePack

Assassins Creed: Odyssey

RePack

NEED FOR SPEED™ PAYBACK

3 сезон

9 сезон

Бесстыжие 9 сезон

Все сериалы

все сериалы на PB.wtf

RePack

FAR CRY 5
Ребята, катастрофически не хватает 1900р. для оплаты серверов за Октябрь (всвязи с блокировками трафик упал в 3 раза), 1-2р., выручайте.
  

Питомец Юрского периода / The Adventures of Jurassic Pet (Райан Беллгардт / Ryan Bellgardt) [2019, приключения, семейный, WEB-DLRip-AVC] [Локализованный видеоряд] [Dub] [iTunes] - ExKinoRay pb.wtf

Питомец Юрского периода через торрент pb.wtf

Раздают: 10 [ 0 KB/s ]
Размер: 1.51 GB | Добавлен: 4 мес. 17 д. назад | Торрент скачан:159 раз
Скачать  

20-07-2019 00:30 Питомец Юрского периода Скачать торрент  

Название: Питомец Юрского периода
Оригинальное название: The Adventures of Jurassic Pet
Год выпуска: 2019
Жанр: Приключения, семейный
Режиссер: Райан Беллгардт
В ролях: Дэвид Флетчер-Холл, Кайлер Чарльз Бек, Бен Холл, Брукс Райан, К. Нил Давенпорт, Дэвид Си Там, Джэми Лой, Лори Каммингс, Эван Ассанте, Джейк Уошберн, Томас Ривас, Майкл Гиббонс

Описание: Любознательный подросток Крис получает в подарок необычное яйцо, из которого вылупляется его новый друг — динозавр Альберт. Впереди их ждут опасные приключения, ведь за Альбертом охотится алчный ученый, чтобы провести над ним свои безумные эксперименты.

rating

Страна: США
Студия: Ace Entertainment Films, Adventures of Jurassic Pet, Boiling Point Media
Продолжительность: 01:21:10
Перевод: Профессиональный (дублированный) | iTunes

Формат: MKV
Качество: WEB-DLRip-AVC
Видео: MPEG-4 AVC, 1024x428 (2.40:1), 25.000 fps, 2084 Kbps, 0.190 bit/pixel
Аудио 1: 48 kHz, AC3, 5.1, 384 Kbps | iTunes |
Аудио 2: 48 kHz, AC3, 2.0, 192 Kbps | Original | ENG |

General
Unique ID : 247935347408530743560196027049617411447 (0xBA869C697CD82EE489B88B5B41F04D77)
Complete name : F:\The.Adventures.of.Jurassic.Pet.2019.WEB-DLrip.AVC.ExKinoRay.mkv
Format : Matroska
Format version : Version 2
File size : 1.51 GiB
Duration : 1 h 21 min
Overall bit rate : 2 659 kb/s
Movie name : The Adventures of Jurassic Pet (2019) from ExKinoRay
Encoded date : UTC 2019-07-19 23:53:02
Writing application : mkvmerge v5.6.0 ('Kenya Kane') built on May 27 2012 16:44:04
Writing library : libebml v1.2.3 + libmatroska v1.3.0

Video
ID : 1
Format : AVC
Format/Info : Advanced Video Codec
Format profile : High@L4.1
Format settings, CABAC : Yes
Format settings, ReFrames : 10 frames
Codec ID : V_MPEG4/ISO/AVC
Duration : 1 h 21 min
Bit rate : 2 084 kb/s
Width : 1 024 pixels
Height : 428 pixels
Display aspect ratio : 2.40:1
Frame rate mode : Constant
Frame rate : 25.000 FPS
Color space : YUV
Chroma subsampling : 4:2:0
Bit depth : 8 bits
Scan type : Progressive
Bits/(Pixel*Frame) : 0.190
Stream size : 1.15 GiB (76%)
Title : Enigma
Writing library : x264 core 152 r2851 ba24899
Encoding settings : cabac=1 / ref=10 / deblock=1:-2:-2 / analyse=0x3:0x113 / me=umh / subme=10 / psy=1 / psy_rd=1.05:0.13 / mixed_ref=1 / me_range=32 / chroma_me=1 / trellis=2 / 8x8dct=1 / cqm=0 / deadzone=21,11 / fast_pskip=0 / chroma_qp_offset=-3 / threads=12 / lookahead_threads=2 / sliced_threads=0 / nr=0 / decimate=0 / interlaced=0 / bluray_compat=0 / constrained_intra=0 / bframes=9 / b_pyramid=2 / b_adapt=2 / b_bias=0 / direct=3 / weightb=1 / open_gop=0 / weightp=2 / keyint=250 / keyint_min=25 / scenecut=40 / intra_refresh=0 / rc=2pass / mbtree=0 / bitrate=2084 / ratetol=1.0 / qcomp=0.60 / qpmin=0 / qpmax=51 / qpstep=4 / cplxblur=20.0 / qblur=0.5 / ip_ratio=1.40 / pb_ratio=1.30 / aq=3:0.80
Language : English
Default : Yes
Forced : No
Color range : Limited
Color primaries : BT.709
Transfer characteristics : BT.709
Matrix coefficients : BT.709

Audio #1
ID : 2
Format : AC-3
Format/Info : Audio Coding 3
Mode extension : CM (complete main)
Format settings, Endianness : Big
Codec ID : A_AC3
Duration : 1 h 21 min
Bit rate mode : Constant
Bit rate : 384 kb/s
Channel(s) : 6 channels
Channel positions : Front: L C R, Side: L R, LFE
Sampling rate : 48.0 kHz
Frame rate : 31.250 FPS (1536 spf)
Compression mode : Lossy
Stream size : 223 MiB (14%)
Title : iTunes
Language : Russian
Default : Yes
Forced : No

Audio #2
ID : 3
Format : AC-3
Format/Info : Audio Coding 3
Mode extension : CM (complete main)
Format settings, Endianness : Big
Codec ID : A_AC3
Duration : 1 h 21 min
Bit rate mode : Constant
Bit rate : 192 kb/s
Channel(s) : 2 channels
Channel positions : Front: L R
Sampling rate : 48.0 kHz
Frame rate : 31.250 FPS (1536 spf)
Compression mode : Lossy
Stream size : 111 MiB (7%)
Language : English
Default : No
Forced : No

Menu
00:00:00.000 : en:Глава 1
00:06:11.120 : en:Глава 2
00:12:00.880 : en:Глава 3
00:16:55.920 : en:Глава 4
00:25:09.920 : en:Глава 5
00:31:23.560 : en:Глава 6
00:38:02.920 : en:Глава 7
00:44:26.480 : en:Глава 8
00:49:47.040 : en:Глава 9
00:55:56.400 : en:Глава 10
01:03:11.440 : en:Глава 11
01:10:56.320 : en:Глава 12
Релиз от:

Автор релиза: pb.wtf



Скачать Питомец Юрского периода через торрент https://i106.fastpic.ru/big/2019/0719/b7/ec72e9e220dde47eb6da68de975310b7.jpg Скачать фильм Питомец Юрского периода через торрент бесплантно в хорошем качестве Описание: Любознательный подросток Крис получает в подарок необычное яйцо, из которого вылупляется его новый друг — динозавр Альберт. ... 10 10 3
Info! Золотая раздача, скачанное не засчитывается.
Торрент: Зарегистрирован [2019-07-20 00:30] · скачан: 159 раз
Статус: √ проверено
Размер: 1.51 GB
Как cкачать? Как скачать Питомец Юрского периода через торрент | qTorrent

Отключить всю рекламу на сайте

    Дорогой пользователь! Огромная просьба, поблагодарите релизера, оцените раздачу и оставьте свои комментарий, если Вы скачали Питомец Юрского периода через торрент бесплатно! Внесите свою лепту в развитие PiratBit!
    Комментировать посты могут только пользователи прошедшие не сложную регистрацию
    Показать сообщения:    

    Питомец Юрского периода через торрент
    Скачать бесплатно Питомец Юрского периода
    Питомец Юрского периода скачать торрент
    Питомец Юрского периода смотреть онлайн
    Cкачать фильм Питомец Юрского периода бесплатно
    Питомец Юрского периода скачать торрент в хорошем качестве
    Питомец Юрского периода смотреть онлайн бесплатно в хорошем качестве


    Вы не можете начинать темы
    Вы не можете отвечать на сообщения
    Вы не можете редактировать свои сообщения
    Вы не можете удалять свои сообщения
    Вы не можете голосовать в опросах
    Вы не можете прикреплять файлы к сообщениям
    Вы можете скачивать файлы