Ссылка на приватное зеркало нашего сайта всего за 1$. Внимание количество ограничено!!!

2 сезон

iTunes

1 сезон

1

2 сезон

2 сезон

iTunes

1 сезон

RePack

30

Ultimate

ВАЖНО

ИГРА 18+

pack

RePack

MK11
pack

Забери бонус

RePack

jed

!!Акция!!

Alien_Rage

RePack

fifa19

RePack

Assassins Creed: Odyssey

RePack

NEED FOR SPEED™ PAYBACK

4 сезон

9 сезон

Бесстыжие 9 сезон

Все сериалы

все сериалы на PB.wtf

RePack

FAR CRY 5
  

Игрища престолов / Purge of Kingdoms: The Unauthorized Game of Thrones Parody (Ара Пайая) [2019, комедия, WEB-DL 1080p] Дубляж [iTunes] pb.wtf

Игрища престолов через торрент pb.wtf

Размер: 3.53 GB | Добавлен: 1 год 4 мес. назад | Торрент скачан:317 раз
Скачать  

20-07-2019 03:04 Игрища престолов Скачать торрент  

Игрища престолов / Purge of Kingdoms: The Unauthorized Game of Thrones Parody««Пародия-Не-Зашквар-На-Сами-Знаете-Что»»

Год выпуска: 2019
Страна: США
Жанр: комедия
Продолжительность: 01:25:06
Перевод: Дублированный | iTunes
Субтитры: Английские
Режиссер: Ара Пайая
В ролях:

Энгус Макфадьен (Barbo), Армандо Гутьеррез (John Doe), Анна Хатчисон (Cursey), Лу Ферриньо (Deadard), Мэдисон Маккинли (Denise Mother of Dragons), Эрин Оллдридж (Master of Secrets), Брэт Джонс (Johnny Bang Bang), Сара Джонс (Lady Stork), Принц Филдер (Kocky of the West), Luís Moreira (Sam Farly), Тим Престон (Prince Jizzy), Эллен Эванс (Ariana Stork)
Описание:
Лорды Восьми Королевств собираются на Пир Очищения, чтобы положить конец войнам и распрям. Они не подозревают, что это лишь хитроумная ловушка Жирного Короля, задумавшего уничтожить их всех до единого. Однако план кровожадного тирана идет наперекосяк, так как в его собственной семье тоже созрел заговор, да и среди гостей немало злоумышленников. Праздник разгорается, измены наступают друг другу на пятки, трупы усеивают замок, а ненависть, ревность и похоть поддают ему жара. Игрища начинаются!
Рейтинг:

MPAA: R - Лицам до 17 лет обязательно присутствие взрослого
Качество: WEB-DL 1080p
Формат: MKV
Видео: MPEG-4 AVC, 5058 Кбит/с, 1908х1068, 23.976 кадр/с
Аудио 1: русский / AC3 / 5.1 / 48 kHz / 384 kbps | Дублированный | iTunes
Аудио 2: английский / AC3 / 5.1 / 48 kHz / 384 kbps
Навигация по главам: есть

Релиз от:
General
Уникальный идентификатор : 223594136781330134163769587595385912007 (0xA836AA124B7E1DBABDA1FE849CF23AC7)
Полное имя : D:\ФИЛЬМЫ\PURGE_O_KINGDOMS_2019_WEB-DL_1080p-BLUEBIRD.mkv
Формат : Matroska
Версия формата : Version 4 / Version 2
Размер файла : 3.53 GiB
Продолжительность : 1 h 25 min
Общий поток : 5 944 kb/s
Название фильма : PURGE_O_KINGDOMS_2019_WEB-DL_1080p-BLUEBIRD
Дата кодирования : UTC 2019-07-19 18:24:52
Программа кодирования : mkvmerge v6.9.1 ('Blue Panther') 32bit built on Apr 18 2014 18:15:44
Библиотека кодирования : libebml v1.3.0 + libmatroska v1.4.1
Обложка : Yes
Attachments : cover.png

Video
Идентификатор : 1
Формат : AVC
Формат/Информация : Advanced Video Codec
Профиль формата : High@L4
Настройки формата : CABAC / 4 Ref Frames
Параметр CABAC формата : Yes
Параметр RefFrames формата : 4 frames
Идентификатор кодека : V_MPEG4/ISO/AVC
Продолжительность : 1 h 25 min
Битрейт : 5 058 kb/s
Ширина : 1 908 pixels
Высота : 1 068 pixels
Соотношение сторон : 16:9
Режим частоты кадров : Constant
Частота кадров : 23.976 (24000/1001) FPS
Цветовое пространство : YUV
Субдискретизация насыщенности : 4:2:0
Битовая глубина : 8 bits
Тип развёртки : Progressive
Бит/(Пиксели*Кадры) : 0.104
Размер потока : 3.01 GiB (85%)
Заголовок : PURGE_O_KINGDOMS_2019_WEB-DL_1080p-BLUEBIRD
Язык : English
Default : Yes
Forced : No
Цветовой диапазон : Limited
Основные цвета : BT.709
Характеристики трансфера : BT.709
Коэффициенты матрицы : BT.709

Audio #1
Идентификатор : 2
Формат : AC-3
Формат/Информация : Audio Coding 3
Идентификатор кодека : A_AC3
Продолжительность : 1 h 25 min
Вид битрейта : Constant
Битрейт : 384 kb/s
Каналы : 6 channels
Расположение каналов : Front: L C R, Side: L R, LFE
Частота : 48.0 kHz
Частота кадров : 31.250 FPS (1536 SPF)
Битовая глубина : 16 bits
Метод сжатия : Lossy
Задержка видео : -42 ms
Размер потока : 234 MiB (6%)
Заголовок : [DUB] DD 5.1 @ 384 kbps (iTunes)
Язык : Russian
ServiceKind/String : Complete Main
Default : Yes
Forced : No

Audio #2
Идентификатор : 3
Формат : AC-3
Формат/Информация : Audio Coding 3
Идентификатор кодека : A_AC3
Продолжительность : 1 h 25 min
Вид битрейта : Constant
Битрейт : 384 kb/s
Каналы : 6 channels
Расположение каналов : Front: L C R, Side: L R, LFE
Частота : 48.0 kHz
Частота кадров : 31.250 FPS (1536 SPF)
Битовая глубина : 16 bits
Метод сжатия : Lossy
Задержка видео : -42 ms
Размер потока : 234 MiB (6%)
Заголовок : [ORIGINAL] DD 5.1 @ 384 kbps (iTunes)
Язык : English
ServiceKind/String : Complete Main
Default : No
Forced : No

Text
Идентификатор : 4
Формат : UTF-8
Идентификатор кодека : S_TEXT/UTF8
Идентификатор кодека/Информация : UTF-8 Plain Text
Заголовок : Full-length
Язык : English
Default : No
Forced : No

Menu
00:00:00.000 : en:1
00:04:09.000 : en:2
00:14:43.000 : en:3
00:24:31.000 : en:4
00:34:07.000 : en:5
00:43:06.000 : en:6
00:53:34.000 : en:7
01:04:08.000 : en:8
01:13:27.000 : en:9
01:20:39.000 : en:10
pb.wtf



Скачать Игрища престолов через торрент https://b.radikal.ru/b23/1907/08/54584b48ddf4.png Скачать фильм Игрища престолов через торрент бесплантно в хорошем качестве Описание: Лорды Восьми Королевств собираются на Пир Очищения, чтобы положить конец войнам и распрям. Они не подозревают, что это лишь ... 8.2 10 13
Info! Золотая раздача, скачанное не засчитывается.
Торрент: Зарегистрирован [2019-07-20 03:04] · скачан: 317 раз
Статус: √ проверено
Размер: 3.53 GB
Как cкачать? Как скачать Игрища престолов через торрент | qTorrent

% Раздел Тема Автор DL S | L
Фильмы 2019-2020 [DVDrip, WEB-DLRip, HDrip] (DUB, MVO) [ 1.46 GB ] Игрища престолов / Purge of Kingdoms: The Unauthorized Game of Thrones Parody [2019 WEB-DLRip] bober100 Скачать
1 | 0

28-11-2019 20:33  

Отключить всю рекламу на сайте

    Дорогой пользователь! Огромная просьба, поблагодарите релизера, оцените раздачу и оставьте свои комментарий, если Вы скачали Игрища престолов через торрент бесплатно! Внесите свою лепту в развитие PiratBit!
    Комментировать посты могут только пользователи прошедшие не сложную регистрацию
    Показать сообщения:    

    Игрища престолов через торрент
    Скачать бесплатно Игрища престолов
    Игрища престолов скачать торрент
    Игрища престолов смотреть онлайн
    Cкачать фильм Игрища престолов бесплатно
    Игрища престолов скачать торрент в хорошем качестве
    Игрища престолов смотреть онлайн бесплатно в хорошем качестве


    Вы не можете начинать темы
    Вы не можете отвечать на сообщения
    Вы не можете редактировать свои сообщения
    Вы не можете удалять свои сообщения
    Вы не можете голосовать в опросах
    Вы не можете прикреплять файлы к сообщениям
    Вы можете скачивать файлы