новый адрес пиратбит piratbit
Мега распродажа FORZA HORIZON 4 ULTIMATE+ВСЕ DLC+ОНЛАЙН всего за 499р. 349 руб. (супер цена). Внимание количество ограничено!!!

iTunes

1+1

iTunes

мы

iTunes

1

iTunes

Чернобыль

iTunes

Ральф против интернета

Лицензия

ПШазам

Лицензия

Игра престолов

Лицензия

30
pack

ВАЖНО

!!Акция!!

Alien_RageХит недели

RePack

Resident Evil 21

ИГРА 18+

pack

RePack

Metro:Exodus

!!Акция!!

Alien_Rage

RePack

fifa19

RePack

Assassins Creed: Odyssey

RePack

NEED FOR SPEED™ PAYBACK

3 сезон

9 сезон

Бесстыжие 9 сезон

Все сериалы

все сериалы на PB.wtf

RePack

FAR CRY 5
Ребята, катастрофически не хватает 1900р. для оплаты серверов за Октябрь (всвязи с блокировками трафик упал в 3 раза), 1-2р., выручайте.
  

Шестнадцатая весна (Ярополк Лапшин) [1963, СССР, мелодрама, семейный, DVDRip от AVP Studio] pb.wtf

Шестнадцатая весна через торрент pb.wtf

Раздают: 5 [ 0 KB/s ] Качают: 1 [ 2 KB/s ]
Размер: 1.09 GB | Добавлен: 3 мес. 26 д. назад | Торрент скачан:6 раз
Скачать  

20-07-2019 07:54 Шестнадцатая весна Скачать торрент  

Шестнадцатая весна
Страна: СССР
Производство: Свердловская к/ст

Жанр: мелодрама, семейный
Год выпуска: 1963
Продолжительность: 01:22:30

Перевод: Не требуется
Cубтитры: нет
Оригинальная аудиодорожка: русский

Режиссер: Ярополк Лапшин

В ролях:
Владимир Гоголинский, Роза Макагонова, Валериан Виноградов, Александра Попова, Константин Максимов, Константин Сорокин, Александр Стрельников, Валентин Чернышов, Зоя Фёдорова, Константин Щепкин...
Об актёрах подробней

Описание:
Славке Кораблеву всего 15 лет. Как-то весенним солнечным утром по дороге в школу он остановился на стройке, залюбовавшись работой экскаватора. Так все ладно у того получалось, что невозможно было глаз оторвать. Велико же было удивление Славки, когда из кабины экскаватора выпрыгнула хрупкая, молодая и красивая девушка.

Источник: DVD5 R5
Качество видео: DVDRip
Формат видео: AVI

Видео: 704х528 (4:3), 25,000 fps, XviD ~ 1690 kbps avg, 0.182 bit/pixel
Аудио: 48 kHz, Dolby Digital AC3 2.0, 192 kbps

Раздача от:
Общее
Полное имя : SHestnadcataya.vesna.1963.DVDRip_[New-team]_by_AVP_Studio.avi
Формат : AVI
Формат/Информация : Audio Video Interleave
Размер файла : 1,09 Гбайт
Продолжительность : 1 ч. 22 м.
Общий поток : 1892 Кбит/сек
Программа кодирования : VirtualDubMod 1.5.10.3 | www.virtualdub-fr.org || (build 2550/release)
Библиотека кодирования : VirtualDubMod build 2550/release

Видео
Идентификатор : 0
Формат : MPEG-4 Visual
Профиль формата : Advanced Simple@L5
Настройки формата : BVOP1 / Custom Matrix
Параметр BVOP формата : 1
Параметр QPel формата : Нет
Параметр GMC формата : Без точки перехода
Параметр матрицы формата : Выборочная
Идентификатор кодека : XVID
Идентификатор кодека/Подсказка : XviD
Продолжительность : 1 ч. 22 м.
Битрейт : 1690 Кбит/сек
Ширина : 704 пикселя
Высота : 528 пикселей
Соотношение сторон : 4:3
Частота кадров : 25,000 кадров/сек
Цветовое пространство : YUV
Субдискретизация насыщенности : 4:2:0
Битовая глубина : 8 бит
Тип развёртки : Прогрессивная
Метод сжатия : С потерями
Бит/(Пиксели*Кадры) : 0.182
Размер потока : 997 Мбайт (89%)
Библиотека кодирования : XviD 73

Аудио
Идентификатор : 1
Формат : AC-3
Формат/Информация : Audio Coding 3
Коммерческое название : Dolby Digital
Идентификатор кодека : 2000
Продолжительность : 1 ч. 22 м.
Вид битрейта : Постоянный
Битрейт : 192 Кбит/сек
Каналы : 2 канала
ChannelLayout : L R
Частота : 48,0 КГц
Частота кадров : 31,250 кадров/сек (1536 SPF)
Битовая глубина : 16 бит
Метод сжатия : С потерями
Размер потока : 113 Мбайт (10%)
Выравнивание : Разделение по промежуткам
Продолжительность промежутка : 40 мс. (1,00 видеокадр)
Время предзагрузки промежутка : 500 мс
pb.wtf



Скачать Шестнадцатая весна через торрент http://picplus.ru/img/1907/20/0d2a7c1f.png Скачать фильм Шестнадцатая весна через торрент бесплантно в хорошем качестве Описание:Славке Кораблеву всего 15 лет. Как-то весенним солнечным утром по дороге в школу он остановился на стройке, залюбовавшись работой ... 10 10 1
Торрент: Зарегистрирован [2019-07-20 07:54] · скачан: 6 раз
Статус: √ проверено
Размер: 1.09 GB
Как cкачать? Как скачать Шестнадцатая весна через торрент | qTorrent

% Раздел Тема Автор DL S | L
Кино СССР [ 1.09 GB ] Шестнадцатая весна [1963 СССР DVDRip-AVC от AVP Studio] AVP Studio Скачать
4 | 0


>> Регистрируемся здесь <<






Отзывы и комментарии о схеме читаем и пишем здесь: ---> Отзывы и комментарии о схеме

Новые благодарочки в телеграм довольных пользователей:
скриншот   скриншот   скриншот   скриншот   скриншот
    Дорогой пользователь! Огромная просьба, поблагодарите релизера, оцените раздачу и оставьте свои комментарий, если Вы скачали Шестнадцатая весна через торрент бесплатно! Внесите свою лепту в развитие PiratBit!
    Комментировать посты могут только пользователи прошедшие не сложную регистрацию
    Показать сообщения:    

    Шестнадцатая весна через торрент
    Скачать бесплатно Шестнадцатая весна
    Шестнадцатая весна скачать торрент
    Шестнадцатая весна смотреть онлайн
    Cкачать фильм Шестнадцатая весна бесплатно
    Шестнадцатая весна скачать торрент в хорошем качестве
    Шестнадцатая весна смотреть онлайн бесплатно в хорошем качестве


    Вы не можете начинать темы
    Вы не можете отвечать на сообщения
    Вы не можете редактировать свои сообщения
    Вы не можете удалять свои сообщения
    Вы не можете голосовать в опросах
    Вы не можете прикреплять файлы к сообщениям
    Вы можете скачивать файлы