Ссылка на приватное зеркало нашего сайта всего за 1$. Внимание количество ограничено!!!

2 сезон

iTunes

1 сезон

1

2 сезон

2 сезон

iTunes

1 сезон

RePack

30

Новинка

ВАЖНО

ИГРА 18+

pack

RePack

MK11
pack

Забери бонус

RePack

jed

!!Акция!!

Alien_Rage

RePack

fifa19

RePack

Assassins Creed: Odyssey

RePack

NEED FOR SPEED™ PAYBACK

4 сезон

9 сезон

Бесстыжие 9 сезон

Все сериалы

все сериалы на PB.wtf

RePack

FAR CRY 5
  

Бумажный дом / La casa de papel / Money Heist / Сезон: 3 / Серии: 1-8 из 8 (Хесус Кольменар, Алекс Родриго, Алехандро Бассано) [2019, Боевик, триллер, криминал, детектив, WEBRip 720p] [DVO] (Gears Media) pb.wtf

Бумажный дом через торрент pb.wtf

Размер: 8.82 GB | Добавлен: 1 год 4 мес. назад | Торрент скачан:37 раз
Скачать  

20-07-2019 16:13 Бумажный дом Скачать торрент  

Бумажный дом / La casa de papel / Money Heist

Год выпуска: 2019
Страна: Испания
Жанр: Боевик, триллер, криминал, детектив
Продолжительность: ~ 00:49:00

Перевод: Профессиональный (двухголосый закадровый) Gears Media

Режиссёр: Хесус Кольменар, Алекс Родриго, Алехандро Бассано

В ролях: Урсула Корберо, Ициар Итуньо, Альваро Морте, Пако Тоус, Педро Алонсо, Альба Флорес, Мигель Эрран, Хайме Лорэнте, Эстер Асебо, Энрике Арсе

Описание: История о преступниках, решивших ограбить Королевский монетный двор Испании и украсть 2400 млн евро.

rating

Качество: WEBRip 720p
Формат: MKV
Видео: X264, 1280x720 at 24.000 fps, ~3300 kbps avg
Аудио 1: AC3, 48,0 КГц, 2 ch, 384 kbps - Russian
Аудио 2: AC3, 48,0 КГц, 6 ch, 384 kbps - Spanish
Субтитры: отсутствуют
Format : Matroska
Format version : Version 4
File size : 1.39 GiB
Duration : 49 min 50 s
Overall bit rate mode : Variable
Overall bit rate : 3 985 kb/s
Encoded date : UTC 2019-07-20 12:43:37
Writing application : mkvmerge v34.0.0 ('Sight and Seen') 64-bit
Writing library : libebml v1.3.7 + libmatroska v1.5.0

Video
ID : 1
Format : AVC
Format/Info : Advanced Video Codec
Format profile : Main@L3.1
Format settings : CABAC / 3 Ref Frames
Format settings, CABAC : Yes
Format settings, Reference : 3 frames
Codec ID : V_MPEG4/ISO/AVC
Duration : 49 min 50 s
Bit rate mode : Variable
Bit rate : 3 320 kb/s
Maximum bit rate : 4 980 kb/s
Width : 1 280 pixels
Height : 720 pixels
Display aspect ratio : 16:9
Frame rate mode : Constant
Frame rate : 24.000 FPS
Color space : YUV
Chroma subsampling : 4:2:0
Bit depth : 8 bits
Scan type : Progressive
Bits/(Pixel*Frame) : 0.150
Stream size : 1.12 GiB (81%)
Writing library : x264 core 148 r2715 7e75228
Encoding settings : cabac=1 / ref=3 / deblock=1:0:0 / analyse=0x1:0x111 / me=umh / subme=10 / psy=1 / psy_rd=1.00:0.00 / mixed_ref=1 / me_range=24 / chroma_me=1 / trellis=2 / 8x8dct=0 / cqm=0 / deadzone=21,11 / fast_pskip=1 / chroma_qp_offset=-2 / threads=8 / lookahead_threads=1 / sliced_threads=0 / nr=0 / decimate=1 / interlaced=0 / bluray_compat=0 / stitchable=1 / constrained_intra=0 / bframes=2 / b_pyramid=0 / b_adapt=2 / b_bias=0 / direct=3 / weightb=1 / open_gop=0 / weightp=2 / keyint=250 / keyint_min=24 / scenecut=0 / intra_refresh=0 / rc_lookahead=48 / rc=2pass / mbtree=1 / bitrate=3320 / ratetol=1.0 / qcomp=0.50 / qpmin=6 / qpmax=51 / qpstep=4 / cplxblur=20.0 / qblur=0.5 / vbv_maxrate=4980 / vbv_bufsize=6640 / nal_hrd=vbr / filler=0 / ip_ratio=1.40 / aq=1:1.00
Language : Spanish
Default : Yes
Forced : No

Audio #1
ID : 2
Format : AC-3
Format/Info : Audio Coding 3
Commercial name : Dolby Digital
Codec ID : A_AC3
Duration : 49 min 50 s
Bit rate mode : Constant
Bit rate : 384 kb/s
Channel(s) : 2 channels
Channel layout : L R
Sampling rate : 48.0 kHz
Frame rate : 31.250 FPS (1536 SPF)
Bit depth : 16 bits
Compression mode : Lossy
Stream size : 137 MiB (10%)
Language : Russian
Service kind : Complete Main
Default : Yes
Forced : Yes

Audio #2
ID : 3
Format : AC-3
Format/Info : Audio Coding 3
Commercial name : Dolby Digital
Codec ID : A_AC3
Duration : 49 min 50 s
Bit rate mode : Constant
Bit rate : 384 kb/s
Channel(s) : 6 channels
Channel layout : L R C LFE Ls Rs
Sampling rate : 48.0 kHz
Frame rate : 31.250 FPS (1536 SPF)
Bit depth : 16 bits
Compression mode : Lossy
Stream size : 137 MiB (10%)
Language : Spanish
Service kind : Complete Main
Default : No
Forced : No
скриншот  скриншот  скриншот  
Внимание! Раздача ведётся путём добавления новых серий; при каждом добавлении создаётся новый торрент. Чтобы начать докачку новой серии, пользователям необходимо сделать следующее:
(1) остановить скачивание,
(2) удалить старый торрент у себя из клиента (старые серии удалять не надо),
(3) скачать новый торрент и запустить его у себя в клиенте вместо старого, при этом указать клиенту путь в старую папку куда и должно происходить скачивание новых серий.
Ваш клиент при этом должен произвести хеширование (проверку) старой папки (если не производит сам - помогите ему сделать это), и будет докачивать только те серии которых у вас ещё нет. Старые серии при этом не удаляются, а продолжают раздаваться!
Eсли вы уже удалили старые серии, то предотвратить повторную закачку старых серий можно, отжав галочку в соответствующих местах при запуске нового торрента. По возможности, желательно не удалять старые серии как можно дольше чтобы релизёр не столько продолжал раздавать старые серии, а смог сконцентрироваться на новых.
pb.wtf



Скачать Бумажный дом через торрент https://i86.fastpic.ru/big/2019/0719/bd/86256cd0adad7c0909188b17982c3ebd.jpg Скачать фильм Бумажный дом через торрент бесплантно в хорошем качестве Описание: История о преступниках, решивших ограбить Королевский монетный двор Испании и украсть 2400 млн ... 10 10 2
Info! Золотая раздача, скачанное не засчитывается.
Торрент: Зарегистрирован [2019-07-20 19:05] · скачан: 37 раз
Статус: √ проверено
Размер: 8.82 GB
Как cкачать? Как скачать Бумажный дом через торрент | qTorrent

% Раздел Тема Автор DL S | L
Зарубежные сериалы [ 15.27 GB ] Бумажный дом / La casa de papel / Money Heist / Сезон: 3 / Серии: 1-8 из 8 [2019 WEBRip 1080p] [MVO] killermax2013 Скачать
3 | 0
Зарубежные сериалы [ 13.55 GB ] Бумажный дом / La casa de papel / Money Heist / Сезон: 3 / Серии: 1-8 из 8 [2019 WEB-DL 1080p] [MVO] killermax2013 Скачать
12 | 2
Зарубежные сериалы [ 4.07 GB ] Бумажный дом / La casa de papel / Money Heist / Сезон: 3 / Серии: 1-8 из 8 [2019 WEB-DLRip] MVO [Jaskier] bober100 Скачать
2 | 0
Зарубежные сериалы [ 11.86 GB ] Бумажный дом / La casa de papel / Money Heist / Сезон: 3 / Серии: 1-8 из 8 [2019 WEB-DL 1080p] MVO (Jaskier] bober100 Скачать
2 | 0
Зарубежные сериалы [ 5.4 GB ] Бумажный дом / La casa de papel / Money Heist / Сезон: 3 / Серии: 1-8 из 8 [2019 WEB-DLRip] MVO [HDRezka Studio] bober100 Скачать
1 | 1
Зарубежные сериалы [ 7.99 GB ] Бумажный дом / La casa de papel / Money Heist / Сезон: 3 / Серии: 1-8 из 8 [2019 WEB-DL 720p] MVO [HDRezka Studio] bober100 Скачать
1 | 0
Зарубежные сериалы [ 13.04 GB ] Бумажный дом / La casa de papel / Money Heist / Сезон: 3 / Серии: 1-8 из 8 [2019 WEB-DL 1080p] MVO [HDRezka Studio] bober100 Скачать
8 | 4

28-11-2019 20:33  

Отключить всю рекламу на сайте

    Дорогой пользователь! Огромная просьба, поблагодарите релизера, оцените раздачу и оставьте свои комментарий, если Вы скачали Бумажный дом через торрент бесплатно! Внесите свою лепту в развитие PiratBit!
    Комментировать посты могут только пользователи прошедшие не сложную регистрацию
    Показать сообщения:    

    Бумажный дом через торрент
    Скачать бесплатно Бумажный дом
    Бумажный дом скачать торрент
    Бумажный дом смотреть онлайн
    Cкачать фильм Бумажный дом бесплатно
    Бумажный дом скачать торрент в хорошем качестве
    Бумажный дом смотреть онлайн бесплатно в хорошем качестве


    Вы не можете начинать темы
    Вы не можете отвечать на сообщения
    Вы не можете редактировать свои сообщения
    Вы не можете удалять свои сообщения
    Вы не можете голосовать в опросах
    Вы не можете прикреплять файлы к сообщениям
    Вы можете скачивать файлы