Ссылка на приватное зеркало нашего сайта всего за 1$. Внимание количество ограничено!!!

2 сезон

iTunes

1 сезон

1

2 сезон

2 сезон

iTunes

1 сезон

RePack

30

Ultimate

ВАЖНО

ИГРА 18+

pack

RePack

MK11
pack

Забери бонус

RePack

jed

!!Акция!!

Alien_Rage

RePack

fifa19

RePack

Assassins Creed: Odyssey

RePack

NEED FOR SPEED™ PAYBACK

4 сезон

9 сезон

Бесстыжие 9 сезон

Все сериалы

все сериалы на PB.wtf

RePack

FAR CRY 5
  

Сутенёр / Pimped (Дэвид Баркер) [2018, Триллер, WEB-DL 1080p] MVO [HDRezka Studio] pb.wtf

Сутенёр через торрент pb.wtf

Размер: 2.23 GB | Добавлен: 1 год 4 мес. назад | Торрент скачан:101 раз
Скачать  

21-07-2019 05:15 Сутенёр Скачать торрент  

Сутенёр / Pimped
Год выпуска: 2018
Страна: Австралия
Жанр: Триллер
Продолжительность: 01:19:23
Перевод: Профессиональный (многоголосый) | HDRezka Studio
Субтитры: Русские (форс.), английские

Режиссер: Дэвид Баркер

rating

В ролях: Элла Скотт Линч, Бенедикт Сэмюэл, Хезер Митчелл, Люис Фиц-Джералд, Робин Голдсуорти, Шон Баркер, Келли Меткалф, Лорен Оррел, Эмма Поттс, Карма Шэрон

Описание: Однажды ночью Сара знакомится в баре с очаровательным молодым человеком по имени Льюис. Интересный разговор и взаимная симпатия подталкивают героиню к дальнейшему общению, и она принимает предложение парня продолжить вечеринку в его доме. Однако вскоре их связь превращается в нечто зловещее, когда выясняется, что Льюис — подлый манипулятор, который вместе со своим соседом Кеннетом заманивает девушек, чтобы издеваться над ними. Вот только негодяи и подумать не могли о том, что Сара скрывает от всего мира свою темную сторону, готовую вырваться наружу в стрессовой ситуации.

Качество: WEB-DL 1080p
Формат: MKV

Видео: MPEG-4 AVC, 3188 Кбит/с, 1920x800, 23.976 fps
Аудио#1: Русский: AC3, 2 ch, 192 Кбит/с - HDRezka Studio
Аудио#2: Английский: Е-AC3, 6 ch, 640 Кбит/с - Original
скриншот  скриншот  скриншот  скриншот  скриншот  

General
Unique ID : 30652106600621149190693046310274119877 (0x170F6188F556814865D69EF91D20B8C5)
Complete name : G:Pimped.2018.AMZN.WEB-DL.1080p.mkv
Format : Matroska
Format version : Version 4 / Version 2
File size : 2.23 GiB
Duration : 1 h 19 min
Overall bit rate : 4 022 kb/s
Encoded date : UTC 2019-07-20 01:40:43
Writing application : mkvmerge v20.0.0 ('I Am The Sun') 64-bit
Writing library : libebml v1.3.5 + libmatroska v1.4.8

Video
ID : 1
Format : AVC
Format/Info : Advanced Video Codec
Format profile : High@L4
Format settings : CABAC / 4 Ref Frames
Format settings, CABAC : Yes
Format settings, RefFrames : 4 frames
Codec ID : V_MPEG4/ISO/AVC
Duration : 1 h 19 min
Bit rate mode : Constant
Bit rate : 3 188 kb/s
Nominal bit rate : 10 000 kb/s
Width : 1 920 pixels
Height : 800 pixels
Display aspect ratio : 2.40:1
Frame rate mode : Constant
Frame rate : 23.976 (24000/1001) FPS
Color space : YUV
Chroma subsampling : 4:2:0
Bit depth : 8 bits
Scan type : Progressive
Bits/(Pixel*Frame) : 0.087
Stream size : 1.77 GiB (79%)
Language : English
Default : Yes
Forced : No
Color range : Limited
Color primaries : BT.709
Transfer characteristics : BT.709
Matrix coefficients : BT.709

Audio #1
ID : 2
Format : AC-3
Format/Info : Audio Coding 3
Codec ID : A_AC3
Duration : 1 h 19 min
Bit rate mode : Constant
Bit rate : 192 kb/s
Channel(s) : 2 channels
Channel positions : Front: L R
Sampling rate : 48.0 kHz
Frame rate : 31.250 FPS (1536 SPF)
Bit depth : 16 bits
Compression mode : Lossy
Stream size : 109 MiB (5%)
Title : MVO, HDRezka Studio
Language : Russian
Service kind : Complete Main
Default : Yes
Forced : No

Audio #2
ID : 3
Format : E-AC-3
Format/Info : Enhanced Audio Coding 3
Codec ID : A_EAC3
Duration : 1 h 19 min
Bit rate mode : Constant
Bit rate : 640 kb/s
Channel(s) : 6 channels
Channel positions : Front: L C R, Side: L R, LFE
Sampling rate : 48.0 kHz
Frame rate : 187.500 FPS (256 SPF)
Compression mode : Lossy
Stream size : 363 MiB (16%)
Language : English
Service kind : Complete Main
Default : No
Forced : No

Text #1
ID : 4
Format : UTF-8
Codec ID : S_TEXT/UTF8
Codec ID/Info : UTF-8 Plain Text
Duration : 1 h 5 min
Bit rate : 0 b/s
Count of elements : 2
Stream size : 81.0 Bytes (0%)
Title : forced
Language : Russian
Default : Yes
Forced : Yes

Text #2
ID : 5
Format : UTF-8
Codec ID : S_TEXT/UTF8
Codec ID/Info : UTF-8 Plain Text
Duration : 1 h 13 min
Bit rate : 33 b/s
Count of elements : 670
Stream size : 18.2 KiB (0%)
Language : English
Default : No
Forced : No

pb.wtf



Скачать Сутенёр через торрент https://i2.imageban.ru/out/2019/07/20/933c2bcd99c84797f245131c64c1c15a.png Скачать фильм Сутенёр через торрент бесплантно в хорошем качестве Описание: Однажды ночью Сара знакомится в баре с очаровательным молодым человеком по имени Льюис. Интересный разговор и взаимная симпатия ... 10 10 4
Торрент: Зарегистрирован [2019-07-21 05:15] · скачан: 101 раз
Статус: T временная
Размер: 2.23 GB
Как cкачать? Как скачать Сутенёр через торрент | qTorrent

28-11-2019 20:33  

Отключить всю рекламу на сайте

    Дорогой пользователь! Огромная просьба, поблагодарите релизера, оцените раздачу и оставьте свои комментарий, если Вы скачали Сутенёр через торрент бесплатно! Внесите свою лепту в развитие PiratBit!
    Комментировать посты могут только пользователи прошедшие не сложную регистрацию
    Показать сообщения:    

    Сутенёр через торрент
    Скачать бесплатно Сутенёр
    Сутенёр скачать торрент
    Сутенёр смотреть онлайн
    Cкачать фильм Сутенёр бесплатно
    Сутенёр скачать торрент в хорошем качестве
    Сутенёр смотреть онлайн бесплатно в хорошем качестве


    Вы не можете начинать темы
    Вы не можете отвечать на сообщения
    Вы не можете редактировать свои сообщения
    Вы не можете удалять свои сообщения
    Вы не можете голосовать в опросах
    Вы не можете прикреплять файлы к сообщениям
    Вы можете скачивать файлы