Ссылка на приватное зеркало нашего сайта всего за 1$. Внимание количество ограничено!!!

2 сезон

iTunes

1 сезон

1

iTunes

iTunes

iTunes

1 сезон

RePack

30

ИГРА 18+

pack

ВАЖНО

!!Акция!!

Alien_RageХит недели

RePack

MK11
pack

Забери бонус

RePack

jed

!!Акция!!

Alien_Rage

RePack

fifa19

RePack

Assassins Creed: Odyssey

RePack

NEED FOR SPEED™ PAYBACK

4 сезон

9 сезон

Бесстыжие 9 сезон

Все сериалы

все сериалы на PB.wtf

RePack

FAR CRY 5
  

Арена для убийства / Серии 1-4 из 4 (Дмитрий Аверин (II) [2018, Детектив, криминал, мелодрама, HDTV 1080i] pb.wtf

Арена для убийства через торрент pb.wtf

Размер: 9.1 GB | Добавлен: 1 год 3 мес. назад | Торрент скачан:37 раз
Скачать  

21-07-2019 08:55 Арена для убийства Скачать торрент  

Арена для убийства Год выпуска: 2018
Страна: Россия
Жанр: Детектив, криминал, мелодрама
Продолжительность: 4 x ~ 00:45:00
Субтитры: отсутствуют

Режиссер: Дмитрий Аверин (II)




В ролях: Алиса Лозовская, Татьяна Чердынцева, Евгений Сидихин, Игорь Лепихин, Артём Карасев, Ян Цапник, Данила Воропаев, Ольга Гордийчук, Игорь Ботвин, Юрий Орлов (II), Роман Жилкин, Леандра Кудряшова, Анастасия Квитко, Юлия Ваганова, Дарья Пельц, Макар Кусакин

Описание: На бывшую детдомовку, а ныне юную воздушную гимнастку Полину сваливается неожиданное богатство – таинственный поклонник ее таланта оставляет ей в наследство один из своих загородных домов. Подарок не приносит счастья – Полина теряет лучшую подругу, иллюзионистку Аглаю: жених Аглаи, красавец-силач Герман, как и многие прочие, начинает ухлестывать за новоиспеченной «принцессой цирка». Со зла Полина дает согласие выйти за Германа замуж. Но накануне торжества его находят убитым, а Аглаю арестовывают по подозрению в убийстве...

Качество: HDTV 1080i
Формат: TS

Видео: 1920х1080 (16:9), 25 fps, AVC MPEG-4 (x264), High@L4.0 ~ 6700 kbps avg, 0.131 bit/pixel
Аудио: 48 kHz, MP2, 2 ch, 192 kbps avg
скриншот  скриншот  скриншот  скриншот  

Общее
Идентификатор : 1 (0x1)
Полное имя : D:\Arena.dlja.ubijstva.2017.HDTV.(1080i).ExKinoRay\Arena.dlja.ubijstva.(01.seriya.iz.04).2017.HDTV.(1080i).ExKinoRay.ts
Формат : MPEG-TS
Размер файла : 2,37 Гбайт
Продолжительность : 46 м. 15 с.
Режим общего битрейта : Переменный
Общий поток : 7345 Кбит/сек

Видео
Идентификатор : 67 (0x43)
Идентификатор меню : 1 (0x1)
Формат : AVC
Формат/Информация : Advanced Video Codec
Профиль формата : High@L4
Параметр CABAC формата : Да
Параметр RefFrames формата : 4 кадра
Идентификатор кодека : 27
Продолжительность : 46 м. 15 с.
Битрейт : 6788 Кбит/сек
Ширина : 1920 пикселей
Высота : 1080 пикселей
Соотношение сторон : 16:9
Частота кадров : 25,000 кадров/сек
Цветовое пространство : YUV
Субдискретизация насыщенности : 4:2:0
Битовая глубина : 8 бит
Тип развёртки : MBAFF
Метод сохранения типа развёртки : Чередующиеся поля
Порядок развёртки : Верхнее поле первое
Бит/(Пиксели*Кадры) : 0.131
Размер потока : 2,19 Гбайт (92%)

Аудио
Идентификатор : 68 (0x44)
Идентификатор меню : 1 (0x1)
Формат : MPEG Audio
Версия формата : Version 1
Профиль формата : Layer 2
Режим : Joint stereo
Расширение режима : Intensity Stereo + MS Stereo
Идентификатор кодека : 3
Продолжительность : 46 м. 15 с.
Вид битрейта : Постоянный
Битрейт : 192 Кбит/сек
Каналы : 2 канала
Частота : 48,0 КГц
Метод сжатия : С потерями
Задержка видео : -80 мс.
Размер потока : 63,5 Мбайт (3%)
Язык : Russian

pb.wtf



Скачать Арена для убийства через торрент http://i102.fastpic.ru/big/2018/0318/fa/1555b57235e2d8e2e33f046c5cbbeefa.jpg Скачать фильм Арена для убийства через торрент бесплантно в хорошем качестве Описание: На бывшую детдомовку, а ныне юную воздушную гимнастку Полину сваливается неожиданное богатство – таинственный поклонник ее ... 10 10 2
Торрент: Зарегистрирован [2019-07-21 08:55] · скачан: 37 раз
Статус: √ проверено
Размер: 9.1 GB
Как cкачать? Как скачать Арена для убийства через торрент | qTorrent

% Раздел Тема Автор DL S | L
Наши сериалы [ 2.35 GB ] Арена для убийства / Серии 1-4 из 4 ) [2018 WEB-DLRip] bober100 Скачать
1 | 0
Наши сериалы [ 2.17 GB ] Арена для убийства / Серии: 1-4 из 4 [2017 SATRip-AVC] aleksan55 Скачать
1 | 0
Наши сериалы [ 2.47 GB ] Арена для убийства / Серии 1-4 из 4 ) [2018 SATRip] bober100 Скачать
1 | 0

28-11-2019 20:33  

Отключить всю рекламу на сайте

    Дорогой пользователь! Огромная просьба, поблагодарите релизера, оцените раздачу и оставьте свои комментарий, если Вы скачали Арена для убийства через торрент бесплатно! Внесите свою лепту в развитие PiratBit!
    Комментировать посты могут только пользователи прошедшие не сложную регистрацию
    Показать сообщения:    

    Арена для убийства через торрент
    Скачать бесплатно Арена для убийства
    Арена для убийства скачать торрент
    Арена для убийства смотреть онлайн
    Cкачать фильм Арена для убийства бесплатно
    Арена для убийства скачать торрент в хорошем качестве
    Арена для убийства смотреть онлайн бесплатно в хорошем качестве


    Вы не можете начинать темы
    Вы не можете отвечать на сообщения
    Вы не можете редактировать свои сообщения
    Вы не можете удалять свои сообщения
    Вы не можете голосовать в опросах
    Вы не можете прикреплять файлы к сообщениям
    Вы можете скачивать файлы