Ссылка на приватное зеркало нашего сайта всего за 1$. Внимание количество ограничено!!!

2 сезон

iTunes

1 сезон

1

2 сезон

2 сезон

iTunes

1 сезон

RePack

30

Новинка

ВАЖНО

ИГРА 18+

pack

RePack

MK11
pack

Забери бонус

RePack

jed

!!Акция!!

Alien_Rage

RePack

fifa19

RePack

Assassins Creed: Odyssey

RePack

NEED FOR SPEED™ PAYBACK

4 сезон

9 сезон

Бесстыжие 9 сезон

Все сериалы

все сериалы на PB.wtf

RePack

FAR CRY 5
  

30 безумных желаний / Then Came You (Питер Хатчингс) [2018, драма, комедия, приключения, BDRemux 1080p] DUB [iTunes] +MVO [HDRezka Studio] pb.wtf

30 безумных желаний через торрент pb.wtf

Размер: 17.28 GB | Добавлен: 1 год 4 мес. назад | Торрент скачан:52 раза
Скачать  

21-07-2019 10:06 30 безумных желаний Скачать торрент  

30 безумных желаний / Then Came You
««Жить одним мгновеньем веселей вдвоем»»
Год выпуска: 2018
Страна: США
Жанр: драма, комедия, приключения
Продолжительность: 01:37:17
Перевод:

#1: Дублированный | iTunes
#2: Профессиональный многоголосый | HDRezka Studio

Субтитры: Русские (Full), английские

Режиссер: Питер Хатчингс

rating

В ролях:

Эйса Баттерфилд (Calvin), Мэйси Уильямс (Skye), Нина Добрев (Izzy), Кен Жонг (Officer Al), Тайлер Хэклин (Frank), Дэвид Кокнер (Bob), Пейтон Лист (Ashley), Титус Берджесс (Julian), Соня Уолгер (Claire), Марго Бингхэм (Lucy), Колин Мосс (Greg), Бриана Венскус (Officer Mya)
Описание: Келвин - мнительный ипохондрик, сортирующий багаж в аэропорту, попутно придумывая себе несуществующие болезни. Скай - девушка-праздник, которая видит в жизни только хорошее. Вернее, в том коротком отрезке жизни, что ей остался. За это время она хочет успеть осуществить свои самые безумные желания. Вместе они заново откроют этот мир и самих себя с весьма неожиданных сторон.

Качество: BD Remux 1080p
Формат: MKV

Видео: MPEG-4 AVC, 1920x1080, 23.0 Mbit/s, 23.976 fps
Аудио#1: 48 kHz, AC3, 5.1, 384 Kbps | iTunes | RUS |
Аудио#2: 48 kHz, AC3, 2.0, 192 Kbps | HDRezka Studio | RUS |
Аудио#3: 48 kHz, DTS-HD MA, 5.1, 1867 Kbps | Оригинал | ENG |
скриншот  скриншот  скриншот  скриншот  скриншот  

General
Unique ID : 148631326490911039463733829007077142878 (0x6FD15A2C2838D7CC748A071033F1F15E)
Complete name : D:Video111Then.Came.You.2018.BDREMUX.1080p.seleZen.mkv
Format : Matroska
Format version : Version 4
File size : 17.3 GiB
Duration : 1 h 37 min
Overall bit rate mode : Variable
Overall bit rate : 25.4 Mb/s
Movie name : Then Came You 2018 from селезень
Encoded date : UTC 2019-07-21 09:43:48
Writing application : mkvmerge v22.0.0 ('At The End Of The World') 64-bit
Writing library : libebml v1.3.5 + libmatroska v1.4.8

Video
ID : 1
Format : AVC
Format/Info : Advanced Video Codec
Format profile : High@L4.1
Format settings : CABAC / 4 Ref Frames
Format settings, CABAC : Yes
Format settings, Reference : 4 frames
Codec ID : V_MPEG4/ISO/AVC
Duration : 1 h 37 min
Bit rate mode : Variable
Bit rate : 23.0 Mb/s
Maximum bit rate : 34.0 Mb/s
Width : 1 920 pixels
Height : 1 080 pixels
Display aspect ratio : 16:9
Frame rate mode : Constant
Frame rate : 23.976 (24000/1001) FPS
Standard : NTSC
Color space : YUV
Chroma subsampling : 4:2:0
Bit depth : 8 bits
Scan type : Progressive
Bits/(Pixel*Frame) : 0.462
Stream size : 15.6 GiB (90%)
Language : English
Default : Yes
Forced : No
Color range : Limited
Color primaries : BT.709
Transfer characteristics : BT.709
Matrix coefficients : BT.709

Audio #1
ID : 2
Format : AC-3
Format/Info : Audio Coding 3
Commercial name : Dolby Digital
Codec ID : A_AC3
Duration : 1 h 37 min
Bit rate mode : Constant
Bit rate : 384 kb/s
Channel(s) : 6 channels
Channel layout : L R C LFE Ls Rs
Sampling rate : 48.0 kHz
Frame rate : 31.250 FPS (1536 SPF)
Bit depth : 16 bits
Compression mode : Lossy
Stream size : 267 MiB (2%)
Title : iTunes
Language : Russian
Service kind : Complete Main
Default : Yes
Forced : Yes

Audio #2
ID : 3
Format : AC-3
Format/Info : Audio Coding 3
Commercial name : Dolby Digital
Codec ID : A_AC3
Duration : 1 h 37 min
Bit rate mode : Constant
Bit rate : 192 kb/s
Channel(s) : 2 channels
Channel layout : L R
Sampling rate : 48.0 kHz
Frame rate : 31.250 FPS (1536 SPF)
Bit depth : 16 bits
Compression mode : Lossy
Stream size : 134 MiB (1%)
Title : HDRezka Studio
Language : Russian
Service kind : Complete Main
Default : No
Forced : No

Audio #3
ID : 4
Format : DTS XLL
Format/Info : Digital Theater Systems
Commercial name : DTS-HD Master Audio
Codec ID : A_DTS
Duration : 1 h 37 min
Bit rate mode : Variable
Bit rate : 1 867 kb/s
Channel(s) : 6 channels
Channel layout : C L R Ls Rs LFE
Sampling rate : 48.0 kHz
Frame rate : 93.750 FPS (512 SPF)
Bit depth : 16 bits
Compression mode : Lossless
Stream size : 1.27 GiB (7%)
Title : Original
Language : English
Default : No
Forced : No

Text #1
ID : 5
Format : UTF-8
Codec ID : S_TEXT/UTF8
Codec ID/Info : UTF-8 Plain Text
Duration : 1 h 33 min
Bit rate : 81 b/s
Count of elements : 1164
Stream size : 56.1 KiB (0%)
Title : Full
Language : Russian
Default : No
Forced : No

Text #2
ID : 6
Format : UTF-8
Codec ID : S_TEXT/UTF8
Codec ID/Info : UTF-8 Plain Text
Duration : 1 h 26 min
Bit rate : 51 b/s
Count of elements : 1158
Stream size : 32.7 KiB (0%)
Title : Full
Language : English
Default : No
Forced : No

Text #3
ID : 7
Format : UTF-8
Codec ID : S_TEXT/UTF8
Codec ID/Info : UTF-8 Plain Text
Duration : 1 h 36 min
Bit rate : 61 b/s
Count of elements : 1470
Stream size : 43.4 KiB (0%)
Title : SDH
Language : English
Default : No
Forced : No

Menu
00:00:00.000 : en:00:00:00.000
00:09:29.068 : en:00:09:29.068
00:16:20.062 : en:00:16:20.062
00:24:07.946 : en:00:24:07.946
00:31:56.873 : en:00:31:56.873
00:38:57.293 : en:00:38:57.293
00:48:15.351 : en:00:48:15.351
00:56:56.163 : en:00:56:56.163
01:04:34.579 : en:01:04:34.579
01:12:32.848 : en:01:12:32.848
01:20:13.976 : en:01:20:13.976
01:30:58.745 : en:01:30:58.745

pb.wtf



Скачать 30 безумных желаний через торрент https://a.radikal.ru/a23/1907/30/d26c650a5ab9.jpg Скачать фильм 30 безумных желаний через торрент бесплантно в хорошем качестве Описание: Келвин - мнительный ипохондрик, сортирующий багаж в аэропорту, попутно придумывая себе несуществующие болезни. Скай - ... 10 10 2
Торрент: Зарегистрирован [2019-07-21 10:06] · скачан: 52 раз
Статус: √ проверено
Размер: 17.28 GB
Как cкачать? Как скачать 30 безумных желаний через торрент | qTorrent

% Раздел Тема Автор DL S | L
Фильмы 2018 [DVDrip, WEB-DLRip, HDrip] (DUB, MVO) [ 1.42 GB ] 30 безумных желаний / Then Came You [2018 BDRip] - Twi7ter Скачать
7 | 0
Фильмы 2018 [DVDrip, WEB-DLRip, HDrip] (DUB, MVO) [ 1.91 GB ] 30 безумных желаний / Then Came You [2018 BDRip-AVC] +MVO [HDRezka Studio] bober100 Скачать
1 | 0
Фильмы [HD 720p, 1080p] (Хороший звук DUB, MVO) [ 3.69 GB ] 30 безумных желаний / Then Came You [2018 BDRip 720p] +MVO [HDRezka Studio] bober100 Скачать
1 | 0
Фильмы [HD 720p, 1080p] (Хороший звук DUB, MVO) [ 7.68 GB ] 30 безумных желаний / Then Came You [2018 BDRip 1080p] +MVO [HDRezka Studio] bober100 Скачать
2 | 0
Фильмы 2018 [DVDrip, WEB-DLRip, HDrip] (DUB, MVO) [ 1.42 GB ] 30 безумных желаний / Then Came You [2018 BDRip] bober100 Скачать
1 | 0

28-11-2019 20:33  

Отключить всю рекламу на сайте

    Дорогой пользователь! Огромная просьба, поблагодарите релизера, оцените раздачу и оставьте свои комментарий, если Вы скачали 30 безумных желаний через торрент бесплатно! Внесите свою лепту в развитие PiratBit!
    Комментировать посты могут только пользователи прошедшие не сложную регистрацию
    Показать сообщения:    

    30 безумных желаний через торрент
    Скачать бесплатно 30 безумных желаний
    30 безумных желаний скачать торрент
    30 безумных желаний смотреть онлайн
    Cкачать фильм 30 безумных желаний бесплатно
    30 безумных желаний скачать торрент в хорошем качестве
    30 безумных желаний смотреть онлайн бесплатно в хорошем качестве


    Вы не можете начинать темы
    Вы не можете отвечать на сообщения
    Вы не можете редактировать свои сообщения
    Вы не можете удалять свои сообщения
    Вы не можете голосовать в опросах
    Вы не можете прикреплять файлы к сообщениям
    Вы можете скачивать файлы